(Classical) Alfredo Casella - Triple Concerto, Op. 56 / Ghedini - Concerto dell'albatro (Damian Iorio, Orchestra I Pomeriggi Musicali; Piemonti, Ghidoni, Bosna, Majer) - 2013, FLAC (image+.cue) lossless


 

[Цитировать]

Alfredo Casella - Triple Concerto, Op. 56 / Ghedini - Concerto dell'albatro (Damian Iorio, Orchestra I Pomeriggi Musicali
Жанр: Classical
Год издания диска: 2013
Издатель (лейбл): Naxos
Номер по каталогу: 8.573180
Аудиокодек: FLAC
Тип рипа: image+.cue
Битрейт аудио: lossless
Продолжительность: 58:11
Источник: скачано из сети
Наличие сканов в содержимом раздачи: да
Треклист:
Alfredo Casella
01. Triple Concerto, Op. 56 - I. Largo, ampio, solenne - Allegro molto vivace [0:10:16.41]
02. II. Adagio: Adagio, ma non troppo. Alquanto solenne ed assai tranquillo [0:12:01.19]
03. III. Rondo: Tempo di giga, allegro vivace, ma non troppo [0:06:54.63]
Giorgio Federico Ghedini
04. Concerto dell'albatro - I. Largo [0:05:40.12]
05. II. Andante un poco mosso [0:02:31.13]
06. III. Andante sostenuto [0:05:21.61]
07. IV. Allegro vivace [0:06:07.55]
08. V. Andante - Allegro con agitazione - Largo in 6 movimenti [0:09:15.29]
Исполнители:
Emanuela Piemonti - Piano,
Paolo Ghidoni - Violin,
Pietro Bosna - Cello,
Carlo Doglioni Majer - Speaker,
Orchestra I Pomeriggi Musicali,
Damian Iorio

LOG EAC

Exact Audio Copy V1.0 beta 3 from 29. August 2011
EAC extraction logfile from 5. February 2014, 22:54
Alfredo Casella & Giorgio Federico Ghedini / Casella: Triple Concerto, Ghedini: Concerto dell'albatro
Used drive : TSSTcorpCDDVDW SH-S223C Adapter: 2 ID: 1
Read mode : SecureUtilize accurate stream : YesDefeat audio cache : YesMake use of C2 pointers : No
Read offset correction : 697Overread into Lead-In and Lead-Out : NoFill up missing offset samples with silence : YesDelete leading and trailing silent blocks : NoNull samples used in CRC calculations : YesUsed interface : Native Win32 interface for Win NT & 2000
Used output format : User Defined EncoderSelected bitrate : 896 kBit/sQuality : HighAdd ID3 tag : NoCommand line compressor : C:\Program Files (x86)\Exact Audio Copy\FLAC\FLAC.EXEAdditional command line options : -V -0 -T "COMMENT=Ripped by Tapaz9" -T "artist=%artist%" -T "title=%title%" -T "album=%albumtitle%" -T "date=%year%" -T "tracknumber=%tracknr%" -T "genre=%genre%" %source%
TOC of the extracted CD
Track | Start | Length | Start sector | End sector --------------------------------------------------------- 1 | 0:00.00 | 10:16.41 | 0 | 46240 2 | 10:16.41 | 12:01.19 | 46241 | 100334 3 | 22:17.60 | 6:54.63 | 100335 | 131447 4 | 29:12.48 | 5:40.12 | 131448 | 156959 5 | 34:52.60 | 2:31.13 | 156960 | 168297 6 | 37:23.73 | 5:21.61 | 168298 | 192433 7 | 42:45.59 | 6:07.55 | 192434 | 220013 8 | 48:53.39 | 9:15.29 | 220014 | 261667
Range status and errors
Selected range
Filename F:\Musique\Casella, Alfredo\Casella_TripleConcerto\Casella- Triple Concerto, Ghedini- Concerto dell'albatro.wav
Peak level 57.6 % Extraction speed 13.0 X Range quality 100.0 % Copy CRC ECDBE626 Copy OK
No errors occurred
End of status report
==== Log checksum A9151C054A154590C1DED59FC67FAA5F63C9FFFB577C3B7E66B6CB46C2C071F7 ====



Показать сообщения:    

Текущее время: 11-Дек 16:54

Часовой пояс: UTC + 3


Вы не можете начинать темы
Вы не можете отвечать на сообщения
Вы не можете редактировать свои сообщения
Вы не можете удалять свои сообщения
Вы не можете голосовать в опросах
Вы не можете прикреплять файлы к сообщениям
Вы не можете скачивать файлы