(Classical) Alfredo Casella - Donna serpente Suites, Introduzione, aria e toccata, Partita (Francesco La Vecchia, Orchestra Sinfonica di Roma) - 2012, FLAC (image+.cue) lossless


 

[Цитировать]

Alfredo Casella - Donna serpente Suites, Introduzione, aria e toccata, Partita (Francesco La Vecchia, Orchestra Sinfonica di Roma)
Жанр: Classical
Год издания диска: 2012
Издатель (лейбл): NAXOS
Номер по каталогу: 8.573005
Аудиокодек: FLAC
Тип рипа: image+.cue
Битрейт аудио: lossless
Продолжительность: 78:28
Источник: скачано из сети
Наличие сканов в содержимом раздачи: да
Треклист:
01. Introduzione, aria e toccata, Op. 55 – I. Introduzione: Largo e solenne [0:06:03.69]
02. II. Aria [0:06:07.12]
03. III. Toccata: Allegro un poco moderato e man mano movendo [0:07:05.42]
04. Partita, Op. 42 - I. Sinfonia [0:09:37.00]
05. II. Passacaglia [0:11:42.10]
06. III. Burlesca [0:08:56.05]
07. La donna serpente Suite No. 1, Op. 50bis - I. Musica del sogno di re altidor: Andante [0:02:56.34]
08. II. Interludio: Andante moderato [0:01:19.39]
09. III. Marcia Guerriera: Tempo di marcia [0:05:14.26]
10. La donna serpente Suite No. 2, Op. 50ter - I. Sinfonia: Allegro vivacissimo [0:06:00.16]
11. II. Preludio: Lento, ma non troppo [0:08:51.66]
12. III. Battaglia - IV. Finale: Allegro vivacissimo [0:04:31.49]
Исполнители:
Sun Hee You - Piano
Orchestra Sinfonica di Roma,
Francesco La Vecchia

LOG EAC

Exact Audio Copy V1.0 beta 3 from 29. August 2011
EAC extraction logfile from 11. December 2013, 23:36
Alfredo Casella / Donna serpente Suites, Introduzione, aria e toccata, Partita
Used drive : TSSTcorpCDDVDW SH-S223C Adapter: 2 ID: 1
Read mode : SecureUtilize accurate stream : YesDefeat audio cache : YesMake use of C2 pointers : No
Read offset correction : 697Overread into Lead-In and Lead-Out : NoFill up missing offset samples with silence : YesDelete leading and trailing silent blocks : NoNull samples used in CRC calculations : YesUsed interface : Native Win32 interface for Win NT & 2000
Used output format : User Defined EncoderSelected bitrate : 896 kBit/sQuality : HighAdd ID3 tag : NoCommand line compressor : C:\Program Files (x86)\Exact Audio Copy\FLAC\FLAC.EXEAdditional command line options : -V -0 -T "COMMENT=Ripped by Tapaz9" -T "artist=%artist%" -T "title=%title%" -T "album=%albumtitle%" -T "date=%year%" -T "tracknumber=%tracknr%" -T "genre=%genre%" %source%
TOC of the extracted CD
Track | Start | Length | Start sector | End sector --------------------------------------------------------- 1 | 0:00.00 | 6:03.69 | 0 | 27293 2 | 6:03.69 | 6:07.12 | 27294 | 54830 3 | 12:11.06 | 7:05.42 | 54831 | 86747 4 | 19:16.48 | 9:37.00 | 86748 | 130022 5 | 28:53.48 | 11:42.10 | 130023 | 182682 6 | 40:35.58 | 8:56.05 | 182683 | 222887 7 | 49:31.63 | 2:56.34 | 222888 | 236121 8 | 52:28.22 | 1:19.39 | 236122 | 242085 9 | 53:47.61 | 5:14.26 | 242086 | 265661 10 | 59:02.12 | 6:00.16 | 265662 | 292677 11 | 65:02.28 | 8:51.66 | 292678 | 332568 12 | 73:54.19 | 4:31.49 | 332569 | 352942
Range status and errors
Selected range
Filename F:\Musique\Casella, Alfredo\Casella_DonnaSerpenteSuites\Alfredo Casella - Donna serpente Suites, Introduzione, aria e toccata, Partita.wav
Peak level 100.0 % Extraction speed 14.4 X Range quality 100.0 % Copy CRC D8730A7E Copy OK
No errors occurred
End of status report
==== Log checksum 1F2C5BC355EACF8E40E60076FF9361E975F2FAB20371A0F2E775B9E942C54209 ====



Показать сообщения:    

Текущее время: 05-Дек 23:36

Часовой пояс: UTC + 3


Вы не можете начинать темы
Вы не можете отвечать на сообщения
Вы не можете редактировать свои сообщения
Вы не можете удалять свои сообщения
Вы не можете голосовать в опросах
Вы не можете прикреплять файлы к сообщениям
Вы не можете скачивать файлы