(Classical, symphony, 20th century) Дмитрий Шостакович - Симфонии №№ 1, 3 - Royal Liverpool Philharmonic Choir & Orchestra, Василий Петренко - 2011, FLAC (image+.cue) lossless


 

[Цитировать]

Дмитрий Шостакович - Симфонии №№ 1, 3 - Royal Liverpool Philharmonic Choir & Orchestra, Василий Петренко
Жанр: Classical, symphony, 20th century
Год издания диска: 2011
Издатель (лейбл): Naxos
Номер по каталогу: 8.572396
Дата записи: 2009, 2010
Аудиокодек: FLAC
Тип рипа: image+.cue
Битрейт аудио: lossless
Продолжительность: 64:33
Источник: собственный рип
Наличие сканов в содержимом раздачи: да
Треклист:
Дмитрий Дмитриевич Шостакович (1906-1975)
[1]-[4] Симфония №1 фа минор, Op.10
[5]-[10] Симфония №3 ми бемоль мажор «Первое мая», Op.20
Исполнители:
Royal Liverpool Philharmonic Choir & Orchestra
Василий Петренко

Лог создания рипа

Exact Audio Copy V1.0 beta 3 from 29. August 2011
EAC extraction logfile from 24. June 2014, 23:51
Royal Liverpool Philharmonic Choir & Orchestra, Vasily Petrenko / Shostakovich - Symphonies Nos. 1 & 3
Used drive : HL-DT-STDVDRAM GSA-4083N Adapter: 1 ID: 0
Read mode : SecureUtilize accurate stream : YesDefeat audio cache : YesMake use of C2 pointers : No
Read offset correction : 667Overread into Lead-In and Lead-Out : NoFill up missing offset samples with silence : YesDelete leading and trailing silent blocks : NoNull samples used in CRC calculations : YesUsed interface : Native Win32 interface for Win NT & 2000
Used output format : User Defined EncoderSelected bitrate : 896 kBit/sQuality : HighAdd ID3 tag : NoCommand line compressor : C:\Program Files\Exact Audio Copy\Flac\flac.exeAdditional command line options : -V -8 %source%
TOC of the extracted CD
Track | Start | Length | Start sector | End sector --------------------------------------------------------- 1 | 0:00.00 | 8:21.19 | 0 | 37593 2 | 8:21.19 | 5:36.34 | 37594 | 62827 3 | 13:57.53 | 9:21.19 | 62828 | 104921 4 | 23:18.72 | 10:11.59 | 104922 | 150805 5 | 33:30.56 | 2:15.32 | 150806 | 160962 6 | 35:46.13 | 8:52.15 | 160963 | 200877 7 | 44:38.28 | 6:05.29 | 200878 | 228281 8 | 50:43.57 | 6:14.26 | 228282 | 256357 9 | 56:58.08 | 3:08.67 | 256358 | 270524 10 | 60:07.00 | 4:23.52 | 270525 | 290301
Range status and errors
Selected range
Filename J:\New Music\Shostakovich - Symphonies Nos. 1 & 3 - Petrenko\Shostakovich - Symphonies Nos. 1 & 3.wav
Peak level 100.0 % Extraction speed 3.5 X Range quality 100.0 % Test CRC A341B682 Copy CRC A341B682 Copy OK
No errors occurred
AccurateRip summary
Track 1 accurately ripped (confidence 20) [4A298066] (AR v2)Track 2 accurately ripped (confidence 20) [77F020F5] (AR v2)Track 3 accurately ripped (confidence 20) [70EA90CB] (AR v2)Track 4 accurately ripped (confidence 20) [A5A7A500] (AR v2)Track 5 accurately ripped (confidence 20) [B927BC58] (AR v2)Track 6 accurately ripped (confidence 20) [06D9BDD4] (AR v2)Track 7 accurately ripped (confidence 20) [9DEC66D8] (AR v2)Track 8 accurately ripped (confidence 20) [08C7FE0A] (AR v2)Track 9 accurately ripped (confidence 20) [281FDDD6] (AR v2)Track 10 accurately ripped (confidence 20) [5CCFC6DA] (AR v2)
All tracks accurately ripped
End of status report
==== Log checksum 98D1C13B5EE6715767F72DDD5677064DB3469D60FA692BB94C943228FAA06D09 ====



Показать сообщения:    

Текущее время: 08-Дек 23:08

Часовой пояс: UTC + 3


Вы не можете начинать темы
Вы не можете отвечать на сообщения
Вы не можете редактировать свои сообщения
Вы не можете удалять свои сообщения
Вы не можете голосовать в опросах
Вы не можете прикреплять файлы к сообщениям
Вы не можете скачивать файлы