Битва за Британию спустя 75 лет / The Battle Of Britain at 75 [2015 г., jazz, classic, HDTVRip]


 

[Цитировать]

Битва за Британию спустя 75 лет / The Battle Of Britain at 75
Страна: UK
Жанр: jazz, classic
Продолжительность: ~3-4 min
Год выпуска: 2015 г.
Описание: В литературно-музыкальном представлении ‘Битва за Британию спустя 75 лет’ рассказывают историю самого крупного воздушного конфликта начала Второй мировой войны, прямая трансляция из Biggin Hill в юго-восточном Лондоне - самая культовая британская станция истребителей.
К исполнителям Dermot O’Leary, Jeremy Vine и Sophie Raworth присоединится концертный оркестр студии BBC, оркестр Royal Air Force Великобритании и специальные гости, включая Pixie Lott и Puppini Sisters.
Продемонстрирован редкий отснятый архивный видеоматериал воздушного конфликта. Ведущие студии ВВС Великобритании в роли актеров, первый из них Simon Callow, читает мемуары Сэра Уинстона Черчилля, а так же другие воспроизведут сюжеты в честь 75-й годовщины этого конфликта.
В этом представлении продемонстрированы видео и туры по Spitfire, полет в Typhoon плюс интервью с ветеранами.
Этот концерт Battle of Britain состоялся благодаря поддержке благотворительных фондов службы ВВС Великобритании и вся прибыль от него будет пожертвована.
Треклист:
1. The Puppini Sisters
2. Pixie Lott
3. Niamh Perry
4. оркестр студии BBC
5. оркестр студии BBC
6. The Shires
7. Shaun Escoffery
8. оркестр Royal Air Force и оркестр студии BBC
9. оркестр студии BBC
Доп. информация: В раздаче только музыкальные номера с вечера, который состоялся 18 сентября 2015 г.
Сайт http://www.battleofbritain75.org/friday/
Полная версия может быть доступна, если кто то возьмется перевести звук (текст на субтитры), или если модераторы разрешат выставить без перевода - много читают на английском.
Источник: собственный рип
Качество: HDTVRip
Контейнер: TS/M2TS
Видео кодек: MPEG2
Аудио кодек: AC3
Видео: MPEG Video (Version 2) (Main@High) 21,4 Мбит/с, 1920x1080 (16:9) 25 к./сек, 4:2:0
Аудио: AC-3 Audio Coding 3, 640 Кбит/сек, 6 каналов, 48,0 КГц, 16 бит, English

Скриншоты






Mediainfo

Общее
Идентификатор : 1 (0x1)
Полное имя : E:\Feed\The Battle Of Britain at 75\Music\The Battle Of Britain at 75.18.09.1.ts
Формат : MPEG-TS
Размер файла : 472 Мбайт
Продолжительность : 2 м. 58 с.
Режим общего битрейта : Переменный
Общий поток : 22,2 Мбит/сек
Максимальный общий битрейт : 35,5 Мбит/сек
Видео
Идентификатор : 4113 (0x1011)
Идентификатор меню : 1 (0x1)
Формат : MPEG Video
Версия формата : Version 2
Профиль формата : Main@High
Параметр BVOP формата : Да
Параметр матрицы формата : По умолчанию
Параметр GOP формата : Variable
Идентификатор кодека : 2
Продолжительность : 2 м. 58 с.
Вид битрейта : Переменный
Битрейт : 20,4 Мбит/сек
Максимальный битрейт : 21,4 Мбит/сек
Ширина : 1920 пикселей
Высота : 1080 пикселей
Соотношение сторон : 16:9
Описание активного формата : Full frame 16:9 image
Частота кадров : 25,000 кадров/сек
Цветовое пространство : YUV
Субдискретизация насыщенности : 4:2:0
Битовая глубина : 8 бит
Тип развёртки : Чересстрочная
Порядок развёртки : Верхнее поле первое
Метод сжатия : С потерями
Бит/(Пиксели*Кадры) : 0.394
Временной код первого кадра : 00:00:00:00
Оригинал временного кода : Group of pictures header
Размер потока : 435 Мбайт (92%)
Аудио
Идентификатор : 4352 (0x1100)
Идентификатор меню : 1 (0x1)
Формат : AC-3
Формат/Информация : Audio Coding 3
Расширение режима : CM (complete main)
Параметр Endianness формата : Big
Идентификатор кодека : 129
Продолжительность : 2 м. 58 с.
Вид битрейта : Постоянный
Битрейт : 640 Кбит/сек
Каналы : 6 каналов
Расположение каналов : Front: L C R, Side: L R, LFE
Частота : 48,0 КГц
Битовая глубина : 16 бит
Метод сжатия : С потерями
Размер потока : 13,6 Мбайт (3%)
Язык : English



Показать сообщения:    

Текущее время: 09-Дек 14:34

Часовой пояс: UTC + 3


Вы не можете начинать темы
Вы не можете отвечать на сообщения
Вы не можете редактировать свои сообщения
Вы не можете удалять свои сообщения
Вы не можете голосовать в опросах
Вы не можете прикреплять файлы к сообщениям
Вы не можете скачивать файлы