Сен-Санс Карнавал животных / Saint-Saens - Le carnaval des animaux (Башмет, Хабенский) [2013, classical, DVB-AVC]


Статистика раздачи [Обновить пиров]
Размер:  730 MB   |    Зарегистрирован:  1 год 1 месяц   |    Скачан:  0 раз

Полного источника не было: Никогда

 
   
 
 
 

[Цитировать]

Сен-Санс Карнавал животных / Saint-Saens - Le carnaval des animaux
Год выпуска: 2013
Страна-производитель: Россия
Жанр: classical
Продолжительность: 00:36:40
Язык: Русский
Исполнители:
Камерный ансамбль "Солисты Москвы".
Дирижер Юрий Башмет.
Читает Константин Хабенский.
Описание: Большая зоологическая фантазия для оркестра и чтеца
Доп. информация:
Данное видео представляет собой прямую запись вещания канала "Культура" мультиплекса РТРС-1 в стандарте DVB-T2. Монтаж программой VideoReDo TVSuite H.264 v4.21.6.674,
Если вы испытываете какие-либо проблемы с его просмотром на компьютере (включая "эффект расчески" или низкое качество видео в сравнении со скриншотами), то можете использовать портативную версию VLC плеера как наиболее универсальное средство их решения. Бытовые плееры, поддерживающие mkv-формат, не должны иметь каких-либо сложностей.
Качество видео: DVB-AVC
Формат/Контейнер: MKV
Видео кодек: H.264
Аудио кодек: MP2
Видео поток: 720x576 (4:3) 50fps ~2500kbps
Аудио поток: 48000Hz 2ch mono 192kbps

MediaInfo

Format : MatroskaFormat version : Version 2File size : 730 MiBDuration : 36mn 39sOverall bit rate : 2 783 KbpsEncoded date : UTC 2015-10-13 13:52:33Writing application : mkvmerge v5.8.0 ('No Sleep / Pillow') built on Sep 2 2012 15:37:04Writing library : libebml v1.2.3 + libmatroska v1.3.0
VideoID : 1Format : AVCFormat/Info : Advanced Video CodecFormat profile : Main@L3.0Format settings, CABAC : YesFormat settings, ReFrames : 3 framesFormat settings, GOP : M=4, N=28Codec ID : V_MPEG4/ISO/AVCDuration : 36mn 39sBit rate : 2 535 KbpsWidth : 720 pixelsHeight : 576 pixelsDisplay aspect ratio : 4:3Original display aspect ratio : 4:3Frame rate mode : ConstantFrame rate : 25.000 fpsStandard : ComponentColor space : YUVChroma subsampling : 4:2:0Bit depth : 8 bitsScan type : InterlacedScan order : Top Field FirstBits/(Pixel*Frame) : 0.245Stream size : 665 MiB (91%)Default : YesForced : NoColor primaries : BT.601 PALTransfer characteristics : BT.470 System B, BT.470 System GMatrix coefficients : BT.601
AudioID : 2Format : MPEG AudioFormat version : Version 1Format profile : Layer 2Codec ID : A_MPEG/L2Codec ID/Hint : MP2Duration : 36mn 39sBit rate mode : ConstantBit rate : 192 KbpsChannel(s) : 2 channelsSampling rate : 48.0 KHzCompression mode : LossyStream size : 50.4 MiB (7%)Language : EnglishDefault : YesForced : No

Скриншоты

[teatrix.ru].t7819.torrent 
Торрент: Зарегистрирован [ 2015-10-13 21:38 ] · 84A9F48899FE451F0869965AECCCCCFDA8865448

Скачать .torrent

Скачать

15 KB

Статус: проверено
Скачан: 0 раз
Размер: 730 MB
terms.php



Быстрый ответ

Имя:

      
Для отправки сообщений необходимо включить JavaScript
Показать сообщения:    

Текущее время: 09-Дек 10:43

Часовой пояс: UTC + 3


Вы можете начинать темы
Вы можете отвечать на сообщения
Вы не можете редактировать свои сообщения
Вы не можете удалять свои сообщения
Вы не можете голосовать в опросах
Вы не можете прикреплять файлы к сообщениям
Вы можете скачивать файлы