(Classical) Mario Castelnuovo-Tedesco - Shakespeare Overtures • 1 - West Australian Symphony Orchestra, Andrew Penny- 2010, FLAC (image+.cue) lossless


 

[Цитировать]

Mario Castelnuovo-Tedesco - Shakespeare Overtures • 1 - West Australian Symphony Orchestra, Andrew Penny
Жанр: Classical
Год издания диска: 2010
Издатель (лейбл): Naxos
Номер по каталогу: 8.572500
Дата записи: 1994
Аудиокодек: FLAC
Тип рипа: image+.cue
Битрейт аудио: lossless
Продолжительность: 65:07
Источник: собственный рип
Наличие сканов в содержимом раздачи: да
Треклист:
Mario Castelnuovo-Tedesco (1895-1968)
[1] Giulio Cesare (Julius Caesar), Op. 78
[2] La bisbetica domata (The Taming of the Shrew), Op. 61
[3] Antony and Cleopatra, Op. 134
[4] A Midsummer Night’s Dream, Op. 108
[5] The Tragedy of Coriolanus, Op. 135
[6] La dodicesima notte (Twelfth Night), Op. 73
WORLD PREMIERE RECORDINGS
Исполнители:
West Australian Symphony Orchestra
Andrew Penny

Лог создания рипа

Exact Audio Copy V1.1 from 23. June 2015
EAC extraction logfile from 7. October 2015, 8:42
West Australian Symphony Orchestra, Andrew Penny / Castelnuovo-Tedesco - Shakespeare Overtures 1
Used drive : HL-DT-STDVDRAM GU70N Adapter: 1 ID: 0
Read mode : SecureUtilize accurate stream : YesDefeat audio cache : YesMake use of C2 pointers : No
Read offset correction : 48Overread into Lead-In and Lead-Out : NoFill up missing offset samples with silence : YesDelete leading and trailing silent blocks : NoNull samples used in CRC calculations : YesUsed interface : Native Win32 interface for Win NT & 2000
Used output format : User Defined EncoderSelected bitrate : 128 kBit/sQuality : HighAdd ID3 tag : NoCommand line compressor : C:\Program Files (x86)\Exact Audio Copy\Flac\flac.exeAdditional command line options : -V -8 -T "Date=%year%" -T "Genre=%genre%" %source%
TOC of the extracted CD
Track | Start | Length | Start sector | End sector --------------------------------------------------------- 1 | 0:00.00 | 11:24.07 | 0 | 51306 2 | 11:24.07 | 9:20.44 | 51307 | 93350 3 | 20:44.51 | 17:50.51 | 93351 | 173651 4 | 38:35.27 | 6:40.02 | 173652 | 203653 5 | 45:15.29 | 9:16.40 | 203654 | 245393 6 | 54:31.69 | 10:33.06 | 245394 | 292874
Range status and errors
Selected range
Filename C:\temp\Castelnuovo-Tedesco - Shakespeare Overtures - 1\Castelnuovo-Tedesco - Shakespeare Overtures 1.wav
Peak level 97.6 % Extraction speed 2.1 X Range quality 99.9 % Test CRC C22416BE Copy CRC C22416BE Copy OK
No errors occurred
AccurateRip summary
Track 1 accurately ripped (confidence 4) [0C620E24] (AR v2)Track 2 accurately ripped (confidence 4) [6395F02C] (AR v2)Track 3 accurately ripped (confidence 4) [052B5A25] (AR v2)Track 4 accurately ripped (confidence 4) [9F983D5F] (AR v2)Track 5 accurately ripped (confidence 4) [E1428941] (AR v2)Track 6 accurately ripped (confidence 4) [D89E7487] (AR v2)
All tracks accurately ripped
End of status report
==== Log checksum 6CD2323855E42D589D6F2C46AD03D54A16D7333FE82C9BA207991D20D922258A ====



Показать сообщения:    

Текущее время: 04-Дек 15:12

Часовой пояс: UTC + 3


Вы не можете начинать темы
Вы не можете отвечать на сообщения
Вы не можете редактировать свои сообщения
Вы не можете удалять свои сообщения
Вы не можете голосовать в опросах
Вы не можете прикреплять файлы к сообщениям
Вы не можете скачивать файлы