Верный робот (Иван Рассомахин) [1965 г., фантастика, телеспектакль, WEB-DLRip]


 

[Цитировать]

Верный робот Год выпуска: 1965.
Жанр: фантастика, телеспектакль.
Продолжительность: 01:20:44.
Режиссер: Иван Рассомахин.
Действующие лица и исполнители:
Робот - Сергей Юрский,
Клемпнер - заслуженный артист РСФСР Владислав Стржельчик,
Господин Гордон - заслуженный артист РСФСР Владимир Эренберг,
Госпожа Гордон - народная артистка РСФСР Валентина Кибардина,
Господин Доннель - заслуженный артист РСФСР Рэм Лебедев,
Госпожа Доннель - заслуженная артистка РСФСР Лидия Штыкан,
Тип - Игорь Щепетнов,
Посыльные - Е. Иванов, Д. Линдес.
О спектакле:
По одноименной пьесе Станислава Лема.
Однажды писатель Том Клемпнер получает по почте посылку с роботом по имени Граумер, хотя он его совсем не заказывал. Но, так как робот ему достался даром, он решает оставить его у себя. Робот оказался очень услужливым, и даже начал давать писателю весьма дельные советы,
но вскоре в доме начинают пропадать вещи, а Клемпнер получает огромные счета за вещи, которые не покупал...

Дополнительная информация:
Страна: СССР .
Выпущено: Ленинградское телевидение.
Автор: Станислав Лем.
Сценарий и постановка: Иван Рассомахин.
Ведущий оператор: Михаил Филиппов.
Художник: Сергей Скинтеев.
Композитор: Вадим Кузнецов.
Релиз
Рип lesik689 .

Качество видео:...WEB-DLRip
Формат:.................AVI
Видео:..640x480 (1.33:1), 25 fps, XviD build 64 ~1799 kbps avg, 0.23 bit/pixel
Аудио:..44.100 kHz, MPEG Layer 3, 2 ch, ~128.00 kbps avg

Отчет Media Info

General
Complete name : Verny.robot.1965.XviD.WEB-DLRip.fenixclub.avi
Format : AVI
Format/Info : Audio Video Interleave
File size : 1.09 GiB
Duration : 1h 20mn
Overall bit rate : 1 937 Kbps
Writing application : VirtualDubMod 1.5.10.2 (build 2542/release)
Writing library : VirtualDubMod build 2542/release
Video
ID : 0
Format : MPEG-4 Visual
Format profile : Advanced Simple@L5
Format settings, BVOP : 2
Format settings, QPel : No
Format settings, GMC : No warppoints
Format settings, Matrix : Default (MPEG)
Codec ID : XVID
Codec ID/Hint : XviD
Duration : 1h 20mn
Bit rate : 1 799 Kbps
Width : 640 pixels
Height : 480 pixels
Display aspect ratio : 5:4
Original display aspect rat : 4:3
Frame rate : 25.000 fps
Color space : YUV
Chroma subsampling : 4:2:0
Bit depth : 8 bits
Scan type : Progressive
Compression mode : Lossy
Bits/(Pixel*Frame) : 0.234
Stream size : 1.01 GiB (93%)
Writing library : XviD 64
Audio
ID : 1
Format : MPEG Audio
Format version : Version 1
Format profile : Layer 3
Mode : Joint stereo
Mode extension : MS Stereo
Codec ID : 55
Codec ID/Hint : MP3
Duration : 1h 20mn
Bit rate mode : Constant
Bit rate : 128 Kbps
Channel(s) : 2 channels
Sampling rate : 44.1 KHz
Compression mode : Lossy
Stream size : 73.7 MiB (7%)
Alignment : Split accross interleaves
Interleave, duration : 40 ms (1.00 video frame)
Interleave, preload duratio : 501 ms.

Скриншоты

Альтернативный хост




Показать сообщения:    

Текущее время: 11-Дек 14:59

Часовой пояс: UTC + 3


Вы не можете начинать темы
Вы не можете отвечать на сообщения
Вы не можете редактировать свои сообщения
Вы не можете удалять свои сообщения
Вы не можете голосовать в опросах
Вы не можете прикреплять файлы к сообщениям
Вы не можете скачивать файлы