(Baroque Sacred) Bach - Magnificat • Vivaldi - Gloria • Caldara - Stabat Mater (Russell, Fischer, Browner - The Sixteen Choir & Orchester, Christophers) - 2001, APE (image+.cue) lossless


Статистика раздачи [Обновить пиров]
Размер:  271 MB   |    Зарегистрирован:  1 год 1 месяц   |    Скачан:  0 раз

Полного источника не было: Никогда

 
   
 
 
 

[Цитировать]

Bach - Magnificat • Vivaldi - Gloria • Caldara - Stabat Mater
Жанр: Baroque Sacred
Страна-производитель диска: EU
Год издания диска: 2001
Издатель (лейбл): Brilliant Classics
Номер по каталогу: 99456
Аудиокодек: APE
Тип рипа: image+.cue
Битрейт аудио: lossless
Продолжительность: 72'22
Источник: собственный рип
Наличие сканов в содержимом раздачи: да
Треклист:Antonio Vivaldi - Gloria in D major, RV 589
for 3 solo voices, chorus, trumpet, oboe, violin (ad lib), 2 violas, 2 cellos, strings & continuo
1. Gloria in excelsis Deo
2. Et in terra pas
3. laudamus te
4. Gratias agimus tibi
5. Propter magnam gloriam
6. Domine Deus
7. Domine Fili Unigenite
8. Domine Deus, Agnus Dei
9. Qui tollis peccata mundi
10. Qui sedem ad dexteram patris
11. Quoniam tu solus sanctus
12. Cum sancto SpirituAntonio Caldara - Stabat Mater
13. Stabat Mater Dolorosa
14. Quis Est Homo, Qui Non Fleret?
15. Sancta Mater
16. Fac Me Tecum Pie Flere
17. Virgo Virginum Praeclara
18. Fac Ut Portem
19. Flammis Ne Urar Succensus
20. Christe, Cum Sit Hinc Exire
21. Fac Ut Animae DoneturJohann Sebastian Bach - Magnificat in D major, BWV 243
for 5 voices, 5-part chorus, orchestra & continuo
22. Magnificat anima mea
23. Et exultavit
24. Quia respexit
25. Omnes gerationes
26. Quia fecit mihi magna
27. Et misericordia
28. Fecit potentes
29. Deposuit potentes
30. Esurientes
31. Suscepit Israel
32. Sicut locutus est
33. Gloria
Исполнители:
Lynda Russell, soprano
Gilian Fischer, soprano
Alison Browner, alto
Caroline Trevor, alto
Ian Partridge, tenor
Michael George, bass
The Sixteen Choir & Orchestra
Harry Christophers

Лог создания рипа

Exact Audio Copy V1.0 beta 3 from 29. August 2011
EAC extraction logfile from 25. May 2015, 20:38
Bach • Vivaldi • Caldara / Magnificat • Gloria • Stabat Mater, Sanctus CD5
Used drive : TS8XDVDSTRANSCEND Adapter: 1 ID: 1
Read mode : SecureUtilize accurate stream : YesDefeat audio cache : YesMake use of C2 pointers : No
Read offset correction : 6Overread into Lead-In and Lead-Out : NoFill up missing offset samples with silence : YesDelete leading and trailing silent blocks : NoNull samples used in CRC calculations : YesUsed interface : Native Win32 interface for Win NT & 2000
Used output format : Monkey's Audio Lossless EncoderSelected bitrate : High Lossless CompressionQuality : HighAdd ID3 tag : YesCommand line compressor : C:\Program Files (x86)\Exact Audio Copy\MAC\MAC.exe
TOC of the extracted CD
Track | Start | Length | Start sector | End sector --------------------------------------------------------- 1 | 0:00.33 | 2:28.57 | 33 | 11189 2 | 2:29.15 | 4:53.28 | 11190 | 33192 3 | 7:22.43 | 2:12.52 | 33193 | 43144 4 | 9:35.20 | 0:27.23 | 43145 | 45192 5 | 10:02.43 | 0:54.05 | 45193 | 49247 6 | 10:56.48 | 3:31.10 | 49248 | 65082 7 | 14:27.58 | 2:11.50 | 65083 | 74957 8 | 16:39.33 | 4:09.45 | 74958 | 93677 9 | 20:49.03 | 1:04.12 | 93678 | 98489 10 | 21:53.15 | 2:06.55 | 98490 | 107994 11 | 23:59.70 | 0:45.73 | 107995 | 111442 12 | 24:45.68 | 2:53.15 | 111443 | 124432 13 | 27:39.08 | 2:35.70 | 124433 | 136127 14 | 30:15.03 | 3:18.35 | 136128 | 151012 15 | 33:33.38 | 2:18.10 | 151013 | 161372 16 | 35:51.48 | 1:47.42 | 161373 | 169439 17 | 37:39.15 | 1:28.28 | 169440 | 176067 18 | 39:07.43 | 1:17.07 | 176068 | 181849 19 | 40:24.50 | 0:59.00 | 181850 | 186274 20 | 41:23.50 | 1:53.40 | 186275 | 194789 21 | 43:17.15 | 1:41.15 | 194790 | 202379 22 | 44:58.30 | 2:52.43 | 202380 | 215322 23 | 47:50.73 | 2:24.62 | 215323 | 226184 24 | 50:15.60 | 2:12.15 | 226185 | 236099 25 | 52:28.00 | 1:13.23 | 236100 | 241597 26 | 53:41.23 | 2:12.45 | 241598 | 251542 27 | 55:53.68 | 3:37.50 | 251543 | 267867 28 | 59:31.43 | 1:51.52 | 267868 | 276244 29 | 61:23.20 | 2:00.55 | 276245 | 285299 30 | 63:24.00 | 2:56.30 | 285300 | 298529 31 | 66:20.30 | 2:09.43 | 298530 | 308247 32 | 68:29.73 | 1:32.05 | 308248 | 315152 33 | 70:02.03 | 2:20.45 | 315153 | 325697
Range status and errors
Selected range
Filename D:\EAC\Bach • Vivaldi • Caldara - Magnificat • Gloria • Stabat Mater, Sanctus CD5.wav
Peak level 82.0 % Extraction speed 3.2 X Range quality 99.9 % Test CRC B58679AF Copy CRC B58679AF Copy OK
No errors occurred
AccurateRip summary
Track 1 accurately ripped (confidence 5) [F240B9E3] (AR v2)Track 2 accurately ripped (confidence 5) [F4EA44DE] (AR v2)Track 3 accurately ripped (confidence 5) [234C6B4D] (AR v2)Track 4 accurately ripped (confidence 5) [FD75E760] (AR v2)Track 5 accurately ripped (confidence 5) [58D7E024] (AR v2)Track 6 accurately ripped (confidence 5) [331BD705] (AR v2)Track 7 accurately ripped (confidence 5) [9AD72D0E] (AR v2)Track 8 accurately ripped (confidence 5) [25ABFD46] (AR v2)Track 9 accurately ripped (confidence 5) [85F526CD] (AR v2)Track 10 accurately ripped (confidence 5) [71D6F59F] (AR v2)Track 11 accurately ripped (confidence 5) [BBE9B2FD] (AR v2)Track 12 accurately ripped (confidence 5) [333EF6A6] (AR v2)Track 13 accurately ripped (confidence 5) [AC5873F2] (AR v2)Track 14 accurately ripped (confidence 5) [A51A6F45] (AR v2)Track 15 accurately ripped (confidence 5) [003352A0] (AR v2)Track 16 accurately ripped (confidence 5) [A8C319E9] (AR v2)Track 17 accurately ripped (confidence 5) [BDF0D48D] (AR v2)Track 18 accurately ripped (confidence 5) [075DD0FE] (AR v2)Track 19 accurately ripped (confidence 5) [E6CB89C6] (AR v2)Track 20 accurately ripped (confidence 5) [2AC4F684] (AR v2)Track 21 accurately ripped (confidence 5) [EDA06A04] (AR v2)Track 22 accurately ripped (confidence 5) [DDB2F1A7] (AR v2)Track 23 accurately ripped (confidence 5) [2F09FA47] (AR v2)Track 24 accurately ripped (confidence 5) [C139B39C] (AR v2)Track 25 accurately ripped (confidence 5) [8FC2A1BD] (AR v2)Track 26 accurately ripped (confidence 5) [099E72C4] (AR v2)Track 27 accurately ripped (confidence 5) [827EA0F2] (AR v2)Track 28 accurately ripped (confidence 4) [BA27F881] (AR v2)Track 29 accurately ripped (confidence 4) [E8C492F0] (AR v2)Track 30 accurately ripped (confidence 5) [CE1405EB] (AR v2)Track 31 accurately ripped (confidence 5) [D0F27D28] (AR v2)Track 32 accurately ripped (confidence 5) [467CEB52] (AR v2)Track 33 accurately ripped (confidence 5) [F256E1C3] (AR v2)
All tracks accurately ripped
End of status report
---- CUETools DB Plugin V2.1.3
[CTDB TOCID: dJV.VD7MGtndZ7u7ygTqiD8vT9A-] found, Submit result: discs with pregaps not supported in this protocol version[412e444b] (3/3) Differs in 0 samples @You can use CUETools to repair this rip.
==== Log checksum AF2637115FBA762610E31E74D0B09D0DF91442D77E89950D8BD2ECF98F376234 ====

Содержание индексной карты (.CUE)

REM GENRE ChoralREM DATE 2006REM DISCID C310F621REM COMMENT "ExactAudioCopy v1.0b3"PERFORMER "Bach • Vivaldi • Caldara"TITLE "Magnificat • Gloria • Stabat Mater, Sanctus CD5"FILE "Bach • Vivaldi • Caldara - Magnificat • Gloria • Stabat Mater, Sanctus CD5.ape" WAVE TRACK 01 AUDIO TITLE "gloria in excelsis deo" PERFORMER "Vivaldi" INDEX 00 00:00:00 INDEX 01 00:00:33 TRACK 02 AUDIO TITLE "et in terra pax" PERFORMER "Vivaldi" INDEX 01 02:29:15 TRACK 03 AUDIO TITLE "laudamus te" PERFORMER "Vivaldi" INDEX 01 07:22:43 TRACK 04 AUDIO TITLE "gratias agimus tibi" PERFORMER "Vivaldi" INDEX 00 09:34:48 INDEX 01 09:35:20 TRACK 05 AUDIO TITLE "propter magnam gloriam" PERFORMER "Vivaldi" INDEX 01 10:02:43 TRACK 06 AUDIO TITLE "domine deus" PERFORMER "Vivaldi" INDEX 00 10:55:73 INDEX 01 10:56:48 TRACK 07 AUDIO TITLE "domine fili unigenite" PERFORMER "Vivaldi" INDEX 01 14:27:58 TRACK 08 AUDIO TITLE "domine deus, agnus dei" PERFORMER "Vivaldi" INDEX 00 16:38:48 INDEX 01 16:39:33 TRACK 09 AUDIO TITLE "qui tollis peccata mundi" PERFORMER "Vivaldi" INDEX 00 20:48:48 INDEX 01 20:49:03 TRACK 10 AUDIO TITLE "qui sedem ad dexteram patris" PERFORMER "Vivaldi" INDEX 01 21:53:15 TRACK 11 AUDIO TITLE "quoniam tu solus sanctus" PERFORMER "Vivaldi" INDEX 00 23:59:23 INDEX 01 23:59:70 TRACK 12 AUDIO TITLE "cum sancto spiritu" PERFORMER "Vivaldi" INDEX 01 24:45:68 TRACK 13 AUDIO TITLE "stabat mater dolorosa" PERFORMER "Caldara" INDEX 00 27:29:23 INDEX 01 27:39:08 TRACK 14 AUDIO TITLE "quis est homo, qui non fleret" PERFORMER "Caldara" INDEX 01 30:15:03 TRACK 15 AUDIO TITLE "sancta mater" PERFORMER "Caldara" INDEX 01 33:33:38 TRACK 16 AUDIO TITLE "fac me tecum oie flere" PERFORMER "Caldara" INDEX 01 35:51:48 TRACK 17 AUDIO TITLE "virgo virginum praeclara" PERFORMER "Caldara" INDEX 01 37:39:15 TRACK 18 AUDIO TITLE "fac ut portem" PERFORMER "Caldara" INDEX 01 39:07:43 TRACK 19 AUDIO TITLE "flammis ne urar succensus" PERFORMER "Caldara" INDEX 01 40:24:50 TRACK 20 AUDIO TITLE "criste, cum hinc exire" PERFORMER "Caldara" INDEX 01 41:23:50 TRACK 21 AUDIO TITLE "fac ut animae donetur" PERFORMER "Caldara" INDEX 01 43:17:15 TRACK 22 AUDIO TITLE "magnificat anima mea" PERFORMER "Bach" INDEX 00 44:46:73 INDEX 01 44:58:30 TRACK 23 AUDIO TITLE "et exultavit" PERFORMER "Bach" INDEX 01 47:50:73 TRACK 24 AUDIO TITLE "quia respexit" PERFORMER "Bach" INDEX 00 50:14:48 INDEX 01 50:15:60 TRACK 25 AUDIO TITLE "omnes gerationes" PERFORMER "Bach" INDEX 01 52:28:00 TRACK 26 AUDIO TITLE "quia fecit mihi magna" PERFORMER "Bach" INDEX 00 53:39:30 INDEX 01 53:41:23 TRACK 27 AUDIO TITLE "et misericordia" PERFORMER "Bach" INDEX 00 55:51:73 INDEX 01 55:53:68 TRACK 28 AUDIO TITLE "fecit potentes" PERFORMER "Bach" INDEX 00 59:30:53 INDEX 01 59:31:43 TRACK 29 AUDIO TITLE "deposuit potentes" PERFORMER "Bach" INDEX 01 61:23:20 TRACK 30 AUDIO TITLE "esurientes" PERFORMER "Bach" INDEX 00 63:22:73 INDEX 01 63:24:00 TRACK 31 AUDIO TITLE "suscepit israel" PERFORMER "Bach" INDEX 00 66:19:48 INDEX 01 66:20:30 TRACK 32 AUDIO TITLE "sicut locutus est" PERFORMER "Bach" INDEX 00 68:28:63 INDEX 01 68:29:73 TRACK 33 AUDIO TITLE "gloria" PERFORMER "Bach" INDEX 01 70:02:03
[teatrix.ru].t7822.torrent 
Торрент: Зарегистрирован [ 2015-10-14 02:42 ] · F136C02DE4B87FD4A5DCB895EF03D0267ADD2122

Скачать .torrent

Скачать

12 KB

Статус: проверено
Скачан: 0 раз
Размер: 271 MB
terms.php



Быстрый ответ

Имя:

      
Для отправки сообщений необходимо включить JavaScript
Показать сообщения:    

Текущее время: 09-Дек 22:21

Часовой пояс: UTC + 3


Вы можете начинать темы
Вы можете отвечать на сообщения
Вы не можете редактировать свои сообщения
Вы не можете удалять свои сообщения
Вы не можете голосовать в опросах
Вы не можете прикреплять файлы к сообщениям
Вы можете скачивать файлы