(Baroque Requiem) Eybler - Requiem (Barbara Schlick, Isolde Assenheimer, Harry van Berne, Harry van der Kamp - Alsfelder Vokalensemble & Steintor Barock Bremen, Wolfgang Helbich) - 1993, APE (image+.cue) lossless


Статистика раздачи [Обновить пиров]
Размер:  203 MB   |    Зарегистрирован:  1 год 1 месяц   |    Скачан:  0 раз

Полного источника не было: Никогда

 
   
 
 
 

[Цитировать]

Joseph Eybler - Requiem
Жанр: Baroque Requiem
Страна-производитель диска: Germany
Год издания диска: 1993
Издатель (лейбл): CPO
Номер по каталогу: 999 234-2
Дата записи: 1992
Аудиокодек: APE
Тип рипа: image+.cue
Битрейт аудио: lossless
Продолжительность: 51'53
Источник: собственный рип
Наличие сканов в содержимом раздачи: да
Треклист:
1. Requiem
2. Dies irae
3. Mors stupedit
4. Liber scriptus
5. Recordare
6. Confutatis
7. Voca me
8. Lacrymosa
9. Domine
10. Hostias
11. Sanctus
12. Benedictus
13. Agnus Dei
14. Cum sanctis
15. Requiem
16. Cum sanctis
Исполнители:
Joseph Eybler - Requiem
Barbara Schlick
Isolde Assenheimer
Harry van Berne
Harry van der Kamp
Alsfelder Vokalensemble
Steintor Barock Bremen
Wolfgang Helbich

Лог создания рипа

Exact Audio Copy V1.0 beta 6 from 9. April 2015
EAC extraction logfile from 6. September 2015, 15:55
Schlick, Assenheimer, Van Berne_Asfelder Vokal_Steintor Barock / Eybler - Requiem, Helbich
Used drive : TS8XDVDSTRANSCEND Adapter: 1 ID: 1
Read mode : SecureUtilize accurate stream : YesDefeat audio cache : YesMake use of C2 pointers : No
Read offset correction : 6Overread into Lead-In and Lead-Out : NoFill up missing offset samples with silence : YesDelete leading and trailing silent blocks : NoNull samples used in CRC calculations : YesUsed interface : Native Win32 interface for Win NT & 2000
Used output format : Monkey's Audio Lossless EncoderSelected bitrate : High Lossless CompressionQuality : HighAdd ID3 tag : YesCommand line compressor : C:\Program Files (x86)\Exact Audio Copy\MAC\MAC.exe
TOC of the extracted CD
Track | Start | Length | Start sector | End sector --------------------------------------------------------- 1 | 0:00.33 | 7:27.32 | 33 | 33589 2 | 7:27.65 | 3:14.20 | 33590 | 48159 3 | 10:42.10 | 1:25.38 | 48160 | 54572 4 | 12:07.48 | 3:11.17 | 54573 | 68914 5 | 15:18.65 | 4:42.18 | 68915 | 90082 6 | 20:01.08 | 0:41.37 | 90083 | 93194 7 | 20:42.45 | 1:31.53 | 93195 | 100072 8 | 22:14.23 | 2:09.12 | 100073 | 109759 9 | 24:23.35 | 5:53.10 | 109760 | 136244 10 | 30:16.45 | 4:28.00 | 136245 | 156344 11 | 34:44.45 | 1:23.05 | 156345 | 162574 12 | 36:07.50 | 4:28.70 | 162575 | 182744 13 | 40:36.45 | 3:52.23 | 182745 | 200167 14 | 44:28.68 | 2:49.57 | 200168 | 212899 15 | 47:18.50 | 1:35.50 | 212900 | 220074 16 | 48:54.25 | 2:59.45 | 220075 | 233544
Range status and errors
Selected range
Filename D:\EAC\Eybler - Requiem, Helbich.wav
Peak level 98.8 % Extraction speed 4.4 X Range quality 100.0 % Test CRC 04C4A099 Copy CRC 04C4A099 Copy OK
No errors occurred
AccurateRip summary
Track 1 accurately ripped (confidence 2) [5EC43174] (AR v2)Track 2 accurately ripped (confidence 2) [F9C8B16B] (AR v2)Track 3 accurately ripped (confidence 2) [76CFC55D] (AR v2)Track 4 accurately ripped (confidence 2) [7E72921D] (AR v2)Track 5 accurately ripped (confidence 2) [2D31AF66] (AR v2)Track 6 accurately ripped (confidence 2) [02DD9F5E] (AR v2)Track 7 accurately ripped (confidence 2) [9AB5F16C] (AR v2)Track 8 accurately ripped (confidence 2) [323F5F33] (AR v2)Track 9 accurately ripped (confidence 2) [EBC83CC4] (AR v2)Track 10 accurately ripped (confidence 2) [302597E5] (AR v2)Track 11 accurately ripped (confidence 2) [4083B560] (AR v2)Track 12 accurately ripped (confidence 2) [A3BFD54D] (AR v2)Track 13 accurately ripped (confidence 2) [556C6F3D] (AR v2)Track 14 accurately ripped (confidence 2) [1B4267EC] (AR v2)Track 15 accurately ripped (confidence 2) [0FBAF72B] (AR v2)Track 16 accurately ripped (confidence 2) [D692D979] (AR v2)
All tracks accurately ripped
End of status report
---- CUETools DB Plugin V2.1.6
[CTDB TOCID: dGZZU8izzVd8a3VJ21S7ODbok70-] foundSubmit result: unrecognized or virtual driveTrack | CTDB Status 1 | (4/4) Accurately ripped 2 | (4/4) Accurately ripped 3 | (4/4) Accurately ripped 4 | (4/4) Accurately ripped 5 | (4/4) Accurately ripped 6 | (4/4) Accurately ripped 7 | (4/4) Accurately ripped 8 | (4/4) Accurately ripped 9 | (4/4) Accurately ripped 10 | (4/4) Accurately ripped 11 | (4/4) Accurately ripped 12 | (4/4) Accurately ripped 13 | (4/4) Accurately ripped 14 | (4/4) Accurately ripped 15 | (4/4) Accurately ripped 16 | (4/4) Accurately ripped
==== Log checksum B5E7FD2151AE10BAD160175C5B96699FD86D311EF42E15F7E669D01DBA6C699F ====

Содержание индексной карты (.CUE)

REM GENRE ChoralREM DATE 1992REM DISCID E20C2910REM COMMENT "ExactAudioCopy v1.0b6"PERFORMER "Schlick, Assenheimer, Van Berne_Asfelder Vokal_Steintor Barock"TITLE "Eybler - Requiem, Helbich"FILE "Eybler - Requiem, Helbich.ape" WAVE TRACK 01 AUDIO TITLE "Eybler Requiem -- I. Introitus und Kyrie - 1. Requiem - 2. Kyrie" PERFORMER "Schlick, Assenheimer, Van Berne_Asfelder Vokal_Steintor Barock" ISRC DEB209323401 INDEX 00 00:00:00 INDEX 01 00:00:33 TRACK 02 AUDIO TITLE "Eybler Requiem -- II. Sequenz - 1. Dies irae" PERFORMER "Schlick, Assenheimer, Van Berne_Asfelder Vokal_Steintor Barock" ISRC DEB209323402 INDEX 01 07:27:65 TRACK 03 AUDIO TITLE "Eybler Requiem -- II. Sequenz - 2. Mors stupebit" PERFORMER "Schlick, Assenheimer, Van Berne_Asfelder Vokal_Steintor Barock" ISRC DEB209323403 INDEX 01 10:42:10 TRACK 04 AUDIO TITLE "Eybler Requiem -- II. Sequenz - 3. Liber scriptus" PERFORMER "Schlick, Assenheimer, Van Berne_Asfelder Vokal_Steintor Barock" ISRC DEB209323404 INDEX 01 12:07:48 TRACK 05 AUDIO TITLE "Eybler Requiem -- II. Sequenz - 4. Recordare" PERFORMER "Schlick, Assenheimer, Van Berne_Asfelder Vokal_Steintor Barock" ISRC DEB209323405 INDEX 01 15:18:65 TRACK 06 AUDIO TITLE "Eybler Requiem -- II. Sequenz - 5. Confutatis" PERFORMER "Schlick, Assenheimer, Van Berne_Asfelder Vokal_Steintor Barock" ISRC DEB209323406 INDEX 01 20:01:08 TRACK 07 AUDIO TITLE "Eybler Requiem -- II. Sequenz - 6. Voca me" PERFORMER "Schlick, Assenheimer, Van Berne_Asfelder Vokal_Steintor Barock" ISRC DEB209323406 INDEX 01 20:42:45 TRACK 08 AUDIO TITLE "Eybler Requiem -- II. Sequenz - 7. Lacrymosa" PERFORMER "Schlick, Assenheimer, Van Berne_Asfelder Vokal_Steintor Barock" ISRC DEB209323408 INDEX 01 22:14:23 TRACK 09 AUDIO TITLE "Eybler Requiem -- III. Offertorium - 1. Domine" PERFORMER "Schlick, Assenheimer, Van Berne_Asfelder Vokal_Steintor Barock" ISRC DEB209323408 INDEX 01 24:23:35 TRACK 10 AUDIO TITLE "Eybler Requiem -- III. Offertorium - 2. Hostias" PERFORMER "Schlick, Assenheimer, Van Berne_Asfelder Vokal_Steintor Barock" ISRC DEB209323410 INDEX 01 30:16:45 TRACK 11 AUDIO TITLE "Eybler Requiem -- IV. Sanctus" PERFORMER "Schlick, Assenheimer, Van Berne_Asfelder Vokal_Steintor Barock" ISRC DEB209323411 INDEX 01 34:44:45 TRACK 12 AUDIO TITLE "Eybler Requiem -- V. Benedictus" PERFORMER "Schlick, Assenheimer, Van Berne_Asfelder Vokal_Steintor Barock" ISRC DEB209323412 INDEX 01 36:07:50 TRACK 13 AUDIO TITLE "Eybler Requiem -- VI. Agnus Dei und Communio - 1. Agnus Dei" PERFORMER "Schlick, Assenheimer, Van Berne_Asfelder Vokal_Steintor Barock" ISRC DEB209323413 INDEX 01 40:36:45 TRACK 14 AUDIO TITLE "Eybler Requiem -- VI. Agnus Dei und Communio - 2. Cum sanctis" PERFORMER "Schlick, Assenheimer, Van Berne_Asfelder Vokal_Steintor Barock" ISRC DEB209323413 INDEX 01 44:28:68 TRACK 15 AUDIO TITLE "Eybler Requiem -- VI. Agnus Dei und Communio - 3. Requiem" PERFORMER "Schlick, Assenheimer, Van Berne_Asfelder Vokal_Steintor Barock" ISRC DEB209323415 INDEX 01 47:18:50 TRACK 16 AUDIO TITLE "Eybler Requiem -- VI. Agnus Dei und Communio - 4. Cum sanctis" PERFORMER "Schlick, Assenheimer, Van Berne_Asfelder Vokal_Steintor Barock" ISRC DEB209323416 INDEX 01 48:54:25
Доп. информация:
The Austrian composer and conductor Joseph Eybler was born in Schwechat.
He was a pupil of Albrechtsberger.
He nursed Wolfgang Amadeus Mozart during his last illness and after his death it was to him that the widow at once committed the task of completing Mozart's Requiem.
Eybler composed his requiem in response to a court commission for a memorial mass for Emperor Leopold II (1747–1792).
Although the compositional style of Eybler's requiem is clearly oriented toward Albrechtsberger, Haydn, and, of course, Mozart, its lavish orchestration (double choir and rich wind instrumentation).
The Requiem is composed in a highly original formal design do indeed attest to an individual expressive and will clearly ditinguishing it from run-of-the-mill sacred works of those times.
[/spoiler
[teatrix.ru].t7823.torrent 
Торрент: Зарегистрирован [ 2015-10-14 02:42 ] · C25744C945C59DB8EFA90BC63F9ED09EB0254AE5

Скачать .torrent

Скачать

17 KB

Статус: проверено
Скачан: 0 раз
Размер: 203 MB
terms.php



Быстрый ответ

Имя:

      
Для отправки сообщений необходимо включить JavaScript
Показать сообщения:    

Текущее время: 07-Дек 19:28

Часовой пояс: UTC + 3


Вы можете начинать темы
Вы можете отвечать на сообщения
Вы не можете редактировать свои сообщения
Вы не можете удалять свои сообщения
Вы не можете голосовать в опросах
Вы не можете прикреплять файлы к сообщениям
Вы можете скачивать файлы