(Classical) Philip van Wilder - Complete Sacred Music; Chansons (with works by Byrd, Causton, Gombert, Josquin, Tallis) - Cantores, David Allinson - 2013, FLAC (image+.cue) lossless


Статистика раздачи [Обновить пиров]
Размер:  309 MB   |    Зарегистрирован:  1 год 1 месяц   |    Скачан:  0 раз

Полного источника не было: Никогда

 
   
 
 
 

[Цитировать]

Philip van Wilder - Complete Sacred Music; Chansons (with works by Byrd, Causton, Gombert, Josquin, Tallis) - Cantores, David Allinson
Жанр: Classical
Страна-производитель диска: UK
Год издания диска: 2013
Издатель (лейбл): Toccata Classics
Номер по каталогу: TOCC0198
Дата записи: 2006, 2007
Аудиокодек: FLAC
Тип рипа: image+.cue
Битрейт аудио: lossless
Продолжительность: 76:50
Источник: собственный рип
Наличие сканов в содержимом раздачи: да
Треклист:
Philip van Wilder (c.1500-54)
Complete Sacred Music
Chansons

[1] Philip van Wilder: Ite missa est / Deo gratias
[2] Josquin Desprez: Homo quidam
[3] Philip van Wilder: Homo quidam
[4] Philip van Wilder: Pater noster
[5] Thomas Tallis: Sancte Deus
[6] Philip van Wilder: Sancte Deus
[7] Nicolas Gombert: Amy, souffrez
[8] Philip van Wilder: Amy, souffrez
[9] Philip van Wilder: O doux regard
[10] Philip van Wilder: Je file quand Dieu me donne de quoy
[11] Philip van Wilder: Pour vous aymer
[12] Philip van Wilder: Amour me poingt, et si je me veulx plaindre
[13] Thomas Causton: Turn thou us
[14] Philip van Wilder: Shall I despair thus suddenly?
[15] Thomas Tallis: O sacrum convivium
[16] Thomas Tallis: Blessed are those that be undefiled
[17] Philip van Wilder: Blessed art thou that fearest God
[18] William Byrd: If in thine heart
[19] Philip van Wilder: Vidi civitatem
[20] Philip van Wilder: Non est qui / Non nobis, Domine
[21] Philip van Wilder: Aspice Domine
[22] William Byrd: Aspice Domine
[23] William Byrd: Ne irascaris / Civitas sancti tui
Исполнители:
Cantores
David Allinson
director

Лог создания рипа

Exact Audio Copy V1.0 beta 3 from 29. August 2011
EAC extraction logfile from 6. March 2015, 1:07
Cantores, David Allinson / Philip van Wilder - Complete Sacred Music; Chansons
Used drive : HL-DT-STDVDRAM GU70N Adapter: 0 ID: 0
Read mode : SecureUtilize accurate stream : YesDefeat audio cache : YesMake use of C2 pointers : No
Read offset correction : 48Overread into Lead-In and Lead-Out : NoFill up missing offset samples with silence : YesDelete leading and trailing silent blocks : NoNull samples used in CRC calculations : YesUsed interface : Native Win32 interface for Win NT & 2000
Used output format : User Defined EncoderSelected bitrate : 128 kBit/sQuality : HighAdd ID3 tag : NoCommand line compressor : C:\Program Files (x86)\Exact Audio Copy\Flac\flac.exeAdditional command line options : -V -8 -T "Date=%year%" -T "Genre=%genre%" %source%
TOC of the extracted CD
Track | Start | Length | Start sector | End sector --------------------------------------------------------- 1 | 0:00.00 | 1:02.65 | 0 | 4714 2 | 1:02.65 | 2:47.61 | 4715 | 17300 3 | 3:50.51 | 3:29.39 | 17301 | 33014 4 | 7:20.15 | 3:29.12 | 33015 | 48701 5 | 10:49.27 | 4:19.23 | 48702 | 68149 6 | 15:08.50 | 6:13.46 | 68150 | 96170 7 | 21:22.21 | 2:31.50 | 96171 | 107545 8 | 23:53.71 | 2:57.15 | 107546 | 120835 9 | 26:51.11 | 2:47.53 | 120836 | 133413 10 | 29:38.64 | 1:18.10 | 133414 | 139273 11 | 30:56.74 | 2:05.49 | 139274 | 148697 12 | 33:02.48 | 2:41.51 | 148698 | 160823 13 | 35:44.24 | 3:10.30 | 160824 | 175103 14 | 38:54.54 | 2:01.27 | 175104 | 184205 15 | 40:56.06 | 2:47.46 | 184206 | 196776 16 | 43:43.52 | 3:23.57 | 196777 | 212058 17 | 47:07.34 | 2:22.28 | 212059 | 222736 18 | 49:29.62 | 2:35.08 | 222737 | 234369 19 | 52:04.70 | 6:20.43 | 234370 | 262912 20 | 58:25.38 | 1:35.33 | 262913 | 270070 21 | 60:00.71 | 5:59.68 | 270071 | 297063 22 | 66:00.64 | 4:18.60 | 297064 | 316473 23 | 70:19.49 | 6:28.36 | 316474 | 345609
Range status and errors
Selected range
Filename C:\temp\Philip van Wilder - Complete Sacred Music; Chansons\Philip van Wilder - Complete Sacred Music; Chansons.wav
Peak level 98.9 % Extraction speed 2.3 X Range quality 100.0 % Test CRC D9FD3EC9 Copy CRC D9FD3EC9 Copy OK
No errors occurred
AccurateRip summary
Track 1 not present in databaseTrack 2 not present in databaseTrack 3 not present in databaseTrack 4 not present in databaseTrack 5 not present in databaseTrack 6 not present in databaseTrack 7 not present in databaseTrack 8 not present in databaseTrack 9 not present in databaseTrack 10 not present in databaseTrack 11 not present in databaseTrack 12 not present in databaseTrack 13 not present in databaseTrack 14 not present in databaseTrack 15 not present in databaseTrack 16 not present in databaseTrack 17 not present in databaseTrack 18 not present in databaseTrack 19 not present in databaseTrack 20 not present in databaseTrack 21 not present in databaseTrack 22 not present in databaseTrack 23 not present in database
None of the tracks are present in the AccurateRip database
End of status report
==== Log checksum 220C9AA9CFEA71B1EA677F2C920A48485B781331BF5F806EE49FE55C2577755D ====
[teatrix.ru].t7824.torrent 
Торрент: Зарегистрирован [ 2015-10-14 02:42 ] · 9DFA28E00250132F1FF1F11E7A56A6A3E2B2F86F

Скачать .torrent

Скачать

26 KB

Статус: проверено
Скачан: 0 раз
Размер: 309 MB
terms.php



Быстрый ответ

Имя:

      
Для отправки сообщений необходимо включить JavaScript
Показать сообщения:    

Текущее время: 05-Дек 17:28

Часовой пояс: UTC + 3


Вы можете начинать темы
Вы можете отвечать на сообщения
Вы не можете редактировать свои сообщения
Вы не можете удалять свои сообщения
Вы не можете голосовать в опросах
Вы не можете прикреплять файлы к сообщениям
Вы можете скачивать файлы