(Baroque Oratorio) Mozart - La Betulia Liberata (Schwarzkopf, Христов/Christoff, Pirazzini, Valletti - Coro e Orchestra della RAI Torino, Rossi) - 2004, APE (image+.cue) lossless


Статистика раздачи [Обновить пиров]
Размер:  274 MB   |    Зарегистрирован:  1 год 1 месяц   |    Скачан:  0 раз

Полного источника не было: Никогда

 
   
 
 
 

[Цитировать]

Wolfgang Amadeus Mozart - La Betulia liberata, K. 118
Жанр: Baroque Oratorio
Страна-производитель диска: Germany
Год издания диска: 2004
Издатель (лейбл): Cantus Classics
Номер по каталогу: 5.00530
Дата записи: 1952
Аудиокодек: APE
Тип рипа: image+.cue
Битрейт аудио: lossless
Продолжительность: 40'03+31'59
Источник: собственный рип
Наличие сканов в содержимом раздачи: да
Треклист:

CD1

1. Part I: Sinfonia
2. Part I: Popoli di Betulia
3. Part I: Ma qual virtu
4. Part I: Minaccia il superbo Oloferne
5. Part I: Non hai cor
6. Part I: Il ferro almeno
7. Part I: Pieta, se irato sei
8. Part I: Che ascolto, Ozia!
9. Part I: Dei pari infeconda
10. Part I: Pieta, se irato sei
11. Part I: Io vengo un pregioniero a presentarti
12. Part I: Terribile d'aspetto
13. Part I: Parto inerme, e non pavento

CD2

1. Part II: Oh prodigio! Oh stupor!
2. Part II: E' dunque vano
3. Part II: Se Dio veder tu vuo
4. Part II: Lodiam, compagni
5. Part II: Prigionier che fa ritorno
6. Part II: Giuditta, Ozia, popoli, amici
7. Part II: Te solo adoro
8. Part II: Il mio timore offese
9. Part II: Con troppa rea vilta
10. Part II: Quanta cura hai di noi
11. Part II: Quei moti che senti
12. Part II: Lodi al gran Dio
Исполнители:
Wolfgang Amadeus Mozart - La Betulia liberata, K. 118
Oratorio in 1 Act
Libretto: Pietro Metastasio
Amital - Elisabeth Schwarzkopf, soprano
Cabri - Luigia Vincenti, soprano
Achior - Boris Christoff, bass
Giuditta - Miriam Pirazzini, alto
Ozia - Cesare Valletti, tenor
Coro e Orchestra della RAI Torino
Mario Rossi
Sung in Italian

Лог создания рипа

CD1

Exact Audio Copy V1.0 beta 6 from 9. April 2015
EAC extraction logfile from 14. September 2015, 16:44
Schwarzkopf, Christoff, Pirazzini - Coro e Orchestra della RAI Torini, Rossi / Mozart - La Betulia Liberata, Rossi CD1
Used drive : TSSTcorpCDDVDW SE-208AB Adapter: 1 ID: 2
Read mode : Secure
Utilize accurate stream : Yes
Defeat audio cache : Yes
Make use of C2 pointers : No
Read offset correction : 6
Overread into Lead-In and Lead-Out : No
Fill up missing offset samples with silence : Yes
Delete leading and trailing silent blocks : No
Null samples used in CRC calculations : Yes
Used interface : Native Win32 interface for Win NT & 2000
Used output format : Monkey's Audio Lossless Encoder
Selected bitrate : High Lossless Compression
Quality : High
Add ID3 tag : Yes
Command line compressor : C:\Program Files (x86)\Exact Audio Copy\MAC\MAC.exe
TOC of the extracted CD
Track | Start | Length | Start sector | End sector
---------------------------------------------------------
1 | 0:00.00 | 4:01.22 | 0 | 18096
2 | 4:01.22 | 1:15.00 | 18097 | 23721
3 | 5:16.22 | 3:47.32 | 23722 | 40778
4 | 9:03.54 | 0:57.69 | 40779 | 45122
5 | 10:01.48 | 4:19.28 | 45123 | 64575
6 | 14:21.01 | 1:39.47 | 64576 | 72047
7 | 16:00.48 | 4:57.01 | 72048 | 94323
8 | 20:57.49 | 0:59.58 | 94324 | 98806
9 | 21:57.32 | 3:11.04 | 98807 | 113135
10 | 25:08.36 | 4:26.45 | 113136 | 133130
11 | 29:35.06 | 1:24.35 | 133131 | 139465
12 | 30:59.41 | 3:46.71 | 139466 | 156486
13 | 34:46.37 | 5:16.60 | 156487 | 180246
Range status and errors
Selected range
Filename D:\EAC\Mozart - La Betulia Liberata, Rossi CD1.wav
Peak level 78.7 %
Extraction speed 4.4 X
Range quality 100.0 %
Test CRC 6297B4A8
Copy CRC 6297B4A8
Copy OK
No errors occurred
AccurateRip summary
Track 1 accurately ripped (confidence 1) [1F9E0976] (AR v1)
Track 2 accurately ripped (confidence 1) [53C27F05] (AR v1)
Track 3 accurately ripped (confidence 1) [659F8E89] (AR v1)
Track 4 accurately ripped (confidence 1) [5C840F52] (AR v1)
Track 5 accurately ripped (confidence 1) [F5597369] (AR v1)
Track 6 accurately ripped (confidence 1) [1F7D8188] (AR v1)
Track 7 accurately ripped (confidence 1) [C7D746F7] (AR v1)
Track 8 accurately ripped (confidence 1) [58CC17A5] (AR v1)
Track 9 accurately ripped (confidence 1) [35914A1E] (AR v1)
Track 10 accurately ripped (confidence 1) [67EAF598] (AR v1)
Track 11 accurately ripped (confidence 1) [A56F6B81] (AR v1)
Track 12 accurately ripped (confidence 1) [3C977CAF] (AR v1)
Track 13 accurately ripped (confidence 1) [D987673B] (AR v1)
All tracks accurately ripped
End of status report
---- CUETools DB Plugin V2.1.6
[CTDB TOCID: iJiQPGpfK_L0FCoB6w8Dk3cedi8-] disk not present in database
Submit result: iJiQPGpfK_L0FCoB6w8Dk3cedi8- has been uploaded
==== Log checksum 94741F5D2EBEBFC9BA21F1D2D92DABAE6F6BB954E820F8AA59B5ADA446844A38 ====

CD2

Exact Audio Copy V1.0 beta 6 from 9. April 2015
EAC extraction logfile from 14. September 2015, 16:52
Schwarzkopf, Christoff, Pirazzini - Coro e Orchestra della RAI Torini, Rossi / Mozart - La Betulia Liberata, Rossi CD2
Used drive : TS8XDVDSTRANSCEND Adapter: 1 ID: 1
Read mode : Secure
Utilize accurate stream : Yes
Defeat audio cache : Yes
Make use of C2 pointers : No
Read offset correction : 6
Overread into Lead-In and Lead-Out : No
Fill up missing offset samples with silence : Yes
Delete leading and trailing silent blocks : No
Null samples used in CRC calculations : Yes
Used interface : Native Win32 interface for Win NT & 2000
Used output format : Monkey's Audio Lossless Encoder
Selected bitrate : High Lossless Compression
Quality : High
Add ID3 tag : Yes
Command line compressor : C:\Program Files (x86)\Exact Audio Copy\MAC\MAC.exe
TOC of the extracted CD
Track | Start | Length | Start sector | End sector
---------------------------------------------------------
1 | 0:00.00 | 2:19.52 | 0 | 10476
2 | 2:19.52 | 0:40.70 | 10477 | 13546
3 | 3:00.47 | 3:36.10 | 13547 | 29756
4 | 6:36.57 | 0:33.44 | 29757 | 32275
5 | 7:10.26 | 5:03.24 | 32276 | 55024
6 | 12:13.50 | 0:54.25 | 55025 | 59099
7 | 13:08.00 | 3:45.36 | 59100 | 76010
8 | 16:53.36 | 0:32.09 | 76011 | 78419
9 | 17:25.45 | 5:27.58 | 78420 | 103002
10 | 22:53.28 | 0:52.37 | 103003 | 106939
11 | 23:45.65 | 2:03.54 | 106940 | 116218
12 | 25:49.44 | 6:09.43 | 116219 | 143936
Range status and errors
Selected range
Filename D:\EAC\Mozart - La Betulia Liberata, Rossi CD2.wav
Peak level 57.8 %
Extraction speed 1.7 X
Range quality 100.0 %
Test CRC 1E1E0017
Copy CRC 1E1E0017
Copy OK
No errors occurred
AccurateRip summary
Track 1 accurately ripped (confidence 1) [49555672] (AR v1)
Track 2 accurately ripped (confidence 1) [DFFDD876] (AR v1)
Track 3 accurately ripped (confidence 1) [FB2C500E] (AR v1)
Track 4 accurately ripped (confidence 1) [F0968BF9] (AR v1)
Track 5 accurately ripped (confidence 1) [D7FA7E44] (AR v1)
Track 6 accurately ripped (confidence 1) [D9CA4EB0] (AR v1)
Track 7 accurately ripped (confidence 1) [CC09D90A] (AR v1)
Track 8 accurately ripped (confidence 1) [742A7CD4] (AR v1)
Track 9 accurately ripped (confidence 1) [F312A62A] (AR v1)
Track 10 accurately ripped (confidence 1) [81048E7B] (AR v1)
Track 11 accurately ripped (confidence 1) [594D2FD3] (AR v1)
Track 12 accurately ripped (confidence 1) [FC1A86C7] (AR v1)
All tracks accurately ripped
End of status report
---- CUETools DB Plugin V2.1.6
[CTDB TOCID: D5RGCmtonlwCaswpdp6tDrsC_EY-] disk not present in database
Submit result: unrecognized or virtual drive
==== Log checksum 742FB3C48D80832D8BB52A78D1C3291C3AA1127079E05DE695B52F9E73344293 ====

Содержание индексной карты (.CUE)

CD1

REM GENRE Oratorio
REM DATE 1952
REM DISCID AE09630D
REM COMMENT "ExactAudioCopy v1.0b6"
PERFORMER "Schwarzkopf, Christoff, Pirazzini - Coro e Orchestra della RAI Torini, Rossi"
TITLE "Mozart - La Betulia Liberata, Rossi CD1"
FILE "Mozart - La Betulia Liberata, Rossi CD1.ape" WAVE
TRACK 01 AUDIO
TITLE "Parte 1 - Sinfonia"
PERFORMER "Schwarzkopf, Christoff, Pirazzini - Coro e Orchestra della RAI Torini, Rossi"
INDEX 01 00:00:00
TRACK 02 AUDIO
TITLE "Parte 1 - Popoli Di Betulia"
PERFORMER "Schwarzkopf, Christoff, Pirazzini - Coro e Orchestra della RAI Torini, Rossi"
INDEX 01 04:01:22
TRACK 03 AUDIO
TITLE "Parte 1 - Ma Qual Virtu"
PERFORMER "Schwarzkopf, Christoff, Pirazzini - Coro e Orchestra della RAI Torini, Rossi"
INDEX 01 05:16:22
TRACK 04 AUDIO
TITLE "Parte 1 - Minaccia Il Superbo Oloferne"
PERFORMER "Schwarzkopf, Christoff, Pirazzini - Coro e Orchestra della RAI Torini, Rossi"
INDEX 01 09:03:54
TRACK 05 AUDIO
TITLE "Parte 1 - Non Hai Cor"
PERFORMER "Schwarzkopf, Christoff, Pirazzini - Coro e Orchestra della RAI Torini, Rossi"
INDEX 01 10:01:48
TRACK 06 AUDIO
TITLE "Parte 1 - Il Ferro Almeno"
PERFORMER "Schwarzkopf, Christoff, Pirazzini - Coro e Orchestra della RAI Torini, Rossi"
INDEX 01 14:21:01
TRACK 07 AUDIO
TITLE "Parte 1 - Pieta, Se Irato Sei"
PERFORMER "Schwarzkopf, Christoff, Pirazzini - Coro e Orchestra della RAI Torini, Rossi"
INDEX 01 16:00:48
TRACK 08 AUDIO
TITLE "Parte 1 - Che Ascolto, Ozia!"
PERFORMER "Schwarzkopf, Christoff, Pirazzini - Coro e Orchestra della RAI Torini, Rossi"
INDEX 01 20:57:49
TRACK 09 AUDIO
TITLE "Parte 1 - Del Pari Infeconda"
PERFORMER "Schwarzkopf, Christoff, Pirazzini - Coro e Orchestra della RAI Torini, Rossi"
INDEX 01 21:57:32
TRACK 10 AUDIO
TITLE "Parte 1 - Pieta, Se Irato Sei"
PERFORMER "Schwarzkopf, Christoff, Pirazzini - Coro e Orchestra della RAI Torini, Rossi"
INDEX 01 25:08:36
TRACK 11 AUDIO
TITLE "Parte 1 - Io Vengo Un Prigioniero A Presentarti"
PERFORMER "Schwarzkopf, Christoff, Pirazzini - Coro e Orchestra della RAI Torini, Rossi"
INDEX 01 29:35:06
TRACK 12 AUDIO
TITLE "Parte 1 - Terribile D'aspetto"
PERFORMER "Schwarzkopf, Christoff, Pirazzini - Coro e Orchestra della RAI Torini, Rossi"
INDEX 01 30:59:41
TRACK 13 AUDIO
TITLE "Parte 1 - Parto Inerme E Non Pavento"
PERFORMER "Schwarzkopf, Christoff, Pirazzini - Coro e Orchestra della RAI Torini, Rossi"
INDEX 01 34:46:37

CD2

REM GENRE Oratorio
REM DATE 1952
REM DISCID 8C077F0C
REM COMMENT "ExactAudioCopy v1.0b6"
PERFORMER "Schwarzkopf, Christoff, Pirazzini - Coro e Orchestra della RAI Torini, Rossi"
TITLE "Mozart - La Betulia Liberata, Rossi CD2"
FILE "Mozart - La Betulia Liberata, Rossi CD2.ape" WAVE
TRACK 01 AUDIO
TITLE "Parte 2 - O prodigio! Oh stupor!"
PERFORMER "Schwarzkopf, Christoff, Pirazzini - Coro e Orchestra della RAI Torini, Rossi"
INDEX 01 00:00:00
TRACK 02 AUDIO
TITLE "Parte 2 - E'dunque vano"
PERFORMER "Schwarzkopf, Christoff, Pirazzini - Coro e Orchestra della RAI Torini, Rossi"
INDEX 01 02:19:52
TRACK 03 AUDIO
TITLE "Parte 2 - Se Dio veder tu vuoi"
PERFORMER "Schwarzkopf, Christoff, Pirazzini - Coro e Orchestra della RAI Torini, Rossi"
INDEX 01 03:00:47
TRACK 04 AUDIO
TITLE "Parte 2 - Lodiam, compagni"
PERFORMER "Schwarzkopf, Christoff, Pirazzini - Coro e Orchestra della RAI Torini, Rossi"
INDEX 01 06:36:57
TRACK 05 AUDIO
TITLE "Parte 2 - Prigionier che fa ritorno"
PERFORMER "Schwarzkopf, Christoff, Pirazzini - Coro e Orchestra della RAI Torini, Rossi"
INDEX 01 07:10:26
TRACK 06 AUDIO
TITLE "Parte 2 - Giuditta, Ozia"
PERFORMER "Schwarzkopf, Christoff, Pirazzini - Coro e Orchestra della RAI Torini, Rossi"
INDEX 01 12:13:50
TRACK 07 AUDIO
TITLE "Parte 2 - Te solo odoro"
PERFORMER "Schwarzkopf, Christoff, Pirazzini - Coro e Orchestra della RAI Torini, Rossi"
INDEX 01 13:08:00
TRACK 08 AUDIO
TITLE "Parte 2 - II mio timore offese"
PERFORMER "Schwarzkopf, Christoff, Pirazzini - Coro e Orchestra della RAI Torini, Rossi"
INDEX 01 16:53:36
TRACK 09 AUDIO
TITLE "Parte 2 - Con troppo reo vilta"
PERFORMER "Schwarzkopf, Christoff, Pirazzini - Coro e Orchestra della RAI Torini, Rossi"
INDEX 01 17:25:45
TRACK 10 AUDIO
TITLE "Parte 2 - Quanto curo hai di noi"
PERFORMER "Schwarzkopf, Christoff, Pirazzini - Coro e Orchestra della RAI Torini, Rossi"
INDEX 01 22:53:28
TRACK 11 AUDIO
TITLE "Parte 2 - Quei moti che senti"
PERFORMER "Schwarzkopf, Christoff, Pirazzini - Coro e Orchestra della RAI Torini, Rossi"
INDEX 01 23:45:65
TRACK 12 AUDIO
TITLE "Parte 2 - Lodi al gran Dio"
PERFORMER "Schwarzkopf, Christoff, Pirazzini - Coro e Orchestra della RAI Torini, Rossi"
INDEX 01 25:49:44
[teatrix.ru].t7825.torrent 
Торрент: Зарегистрирован [ 2015-10-14 02:42 ] · 08E57C1B61B49550E145999CE8686A7796406401

Скачать .torrent

Скачать

12 KB

Статус: проверено
Скачан: 0 раз
Размер: 274 MB
terms.php



Быстрый ответ

Имя:

      
Для отправки сообщений необходимо включить JavaScript
Показать сообщения:    

Текущее время: 04-Дек 13:15

Часовой пояс: UTC + 3


Вы можете начинать темы
Вы можете отвечать на сообщения
Вы не можете редактировать свои сообщения
Вы не можете удалять свои сообщения
Вы не можете голосовать в опросах
Вы не можете прикреплять файлы к сообщениям
Вы можете скачивать файлы