(Classical) Armenia: Liturgical Chants - Mekhitarist Community of Venice (Choir of the Mekhitarist Community of San Lazzaro) - 2015, FLAC (tracks+.cue) lossless


Статистика раздачи [Обновить пиров]
Размер:  283 MB   |    Зарегистрирован:  1 год 1 месяц   |    Скачан:  0 раз

Полного источника не было: Никогда

 
   
 
 
 

[Цитировать]

Armenia: Liturgical Chants - Mekhitarist Community of Venice
Жанр: Classical
Год издания диска: 2015
Издатель (лейбл): Unesco
Номер по каталогу:
Дата записи: 1975
Аудиокодек: FLAC
Тип рипа: tracks+.cue
Битрейт аудио: lossless
Продолжительность: 00:55:43
Источник: собственный рип
Наличие сканов в содержимом раздачи: да
Исполнители:
Choir of the Mekhitarist Community of San Lazzaro
Треклист:
01. Louys Araritch Lousso (Hymn to the Light of the Trinity) (05:49)
02. Ornemc Ezkez Anesghispen Hayr (The Return to the Father) (06:15)
03. Vor Eshorourt Ko Kalesdiant (The Last Coming of Christ) (06:50)
04. Houys Im (My Hope) (05:24)
05. Ourah Ler Sourp Yeghehetzi (The Joy of the Church) (03:54)
06. Patz Mez Der (Open for Us, O Lord) (02:44)
07. Aleluia! (02:30)
08. Psalm of Lament (02:06)
09. Arzatsirouty Ampen (The Betrayal) (05:02)
10. Zartyav Agheghen (Alleluia for Good Friday) (02:04)
11. Zartyav Agheghen (Alleluia for Good Friday) (02:44)
12. Zartyav Agheghen (Alleluia for Good Friday) (03:36)
13. Aysor Haryav (The Resurrection of Christ) (04:14)
14. Litany (02:31)-

LOG EAC:

Exact Audio Copy V1.0 beta 3 from 29. August 2011
EAC extraction logfile from 12. September 2015, 18:02
Choir of the Mekhitarist Community of San Lazzaro / Armenia. Liturgical Chants - Mekhitarist Community of Venice
Used drive : PIONEER DVD-RW DVR-221L Adapter: 2 ID: 0
Read mode : SecureUtilize accurate stream : YesDefeat audio cache : YesMake use of C2 pointers : No
Read offset correction : 6Overread into Lead-In and Lead-Out : NoFill up missing offset samples with silence : YesDelete leading and trailing silent blocks : NoNull samples used in CRC calculations : YesUsed interface : Installed external ASPI interfaceGap handling : Appended to previous track
Used output format : User Defined EncoderSelected bitrate : 768 kBit/sQuality : HighAdd ID3 tag : NoCommand line compressor : C:\Program Files\Exact Audio Copy\Flac\flac.exeAdditional command line options : -6 -V -T "ARTIST=%artist%" -T "TITLE=%title%" -T "ALBUM=%albumtitle%" -T "DATE=%year%" -T "TRACKNUMBER=%tracknr%" -T "GENRE=%genre%" -T "COMMENT=%comment%" -T "ALBUMARTIST=%albuminterpret%" -T "COMPOSER=%composer%" -T "DISCNUMBER=%cdnumber%" -T "TOTALDISCS=%totalcds%" -T "TOTALTRACKS=%numtracks%" %source% -o %dest%
TOC of the extracted CD
Track | Start | Length | Start sector | End sector --------------------------------------------------------- 1 | 0:00.00 | 5:48.60 | 0 | 26159 2 | 5:48.60 | 6:15.07 | 26160 | 54291 3 | 12:03.67 | 6:50.15 | 54292 | 85056 4 | 18:54.07 | 5:23.70 | 85057 | 109351 5 | 24:18.02 | 3:54.05 | 109352 | 126906 6 | 28:12.07 | 2:44.08 | 126907 | 139214 7 | 30:56.15 | 2:30.35 | 139215 | 150499 8 | 33:26.50 | 2:05.67 | 150500 | 159941 9 | 35:32.42 | 5:02.05 | 159942 | 182596 10 | 40:34.47 | 2:04.30 | 182597 | 191926 11 | 42:39.02 | 2:43.58 | 191927 | 204209 12 | 45:22.60 | 3:35.62 | 204210 | 220396 13 | 48:58.47 | 4:14.03 | 220397 | 239449 14 | 53:12.50 | 2:31.19 | 239450 | 250793
Track 1
Filename D:\EAC\01 - Louys Araritch Lousso (Hymn to the Light of the Trinity).wav
Pre-gap length 0:00:02.00
Peak level 63.5 % Extraction speed 5.1 X Track quality 100.0 % Test CRC CE0C4CDC Copy CRC CE0C4CDC Track not present in AccurateRip database Copy OK
Track 2
Filename D:\EAC\02 - Ornemc Ezkez Anesghispen Hayr (The Return to the Father).wav
Peak level 63.7 % Extraction speed 5.9 X Track quality 100.0 % Test CRC 691725DF Copy CRC 691725DF Track not present in AccurateRip database Copy OK
Track 3
Filename D:\EAC\03 - Vor Eshorourt Ko Kalesdiant (The Last Coming of Christ).wav
Peak level 42.0 % Extraction speed 6.7 X Track quality 100.0 % Test CRC B4C54E96 Copy CRC B4C54E96 Track not present in AccurateRip database Copy OK
Track 4
Filename D:\EAC\04 - Houys Im (My Hope).wav
Peak level 71.0 % Extraction speed 7.1 X Track quality 100.0 % Test CRC 75CA0AC9 Copy CRC 75CA0AC9 Track not present in AccurateRip database Copy OK
Track 5
Filename D:\EAC\05 - Ourah Ler Sourp Yeghehetzi (The Joy of the Church).wav
Peak level 39.1 % Extraction speed 5.8 X Track quality 99.9 % Test CRC 466CFEF8 Copy CRC 466CFEF8 Track not present in AccurateRip database Copy OK
Track 6
Filename D:\EAC\06 - Patz Mez Der (Open for Us, O Lord).wav
Peak level 66.3 % Extraction speed 7.1 X Track quality 100.0 % Test CRC F3973802 Copy CRC F3973802 Track not present in AccurateRip database Copy OK
Track 7
Filename D:\EAC\07 - Aleluia!.wav
Peak level 40.9 % Extraction speed 7.0 X Track quality 100.0 % Test CRC 08C575B3 Copy CRC 08C575B3 Track not present in AccurateRip database Copy OK
Track 8
Filename D:\EAC\08 - Psalm of Lament.wav
Peak level 35.4 % Extraction speed 7.0 X Track quality 100.0 % Test CRC E2952404 Copy CRC E2952404 Track not present in AccurateRip database Copy OK
Track 9
Filename D:\EAC\09 - Arzatsirouty Ampen (The Betrayal).wav
Peak level 50.7 % Extraction speed 8.2 X Track quality 100.0 % Test CRC 54BA4735 Copy CRC 54BA4735 Track not present in AccurateRip database Copy OK
Track 10
Filename D:\EAC\10 - Zartyav Agheghen (Alleluia for Good Friday).wav
Peak level 46.0 % Extraction speed 7.2 X Track quality 100.0 % Test CRC CE47E3F1 Copy CRC CE47E3F1 Track not present in AccurateRip database Copy OK
Track 11
Filename D:\EAC\11 - Zartyav Agheghen (Alleluia for Good Friday).wav
Peak level 52.7 % Extraction speed 8.0 X Track quality 100.0 % Test CRC 5F345A76 Copy CRC 5F345A76 Track not present in AccurateRip database Copy OK
Track 12
Filename D:\EAC\12 - Zartyav Agheghen (Alleluia for Good Friday).wav
Peak level 54.7 % Extraction speed 8.3 X Track quality 100.0 % Test CRC 96F8B346 Copy CRC 96F8B346 Track not present in AccurateRip database Copy OK
Track 13
Filename D:\EAC\13 - Aysor Haryav (The Resurrection of Christ).wav
Peak level 49.6 % Extraction speed 8.9 X Track quality 100.0 % Test CRC 70991B70 Copy CRC 70991B70 Track not present in AccurateRip database Copy OK
Track 14
Filename D:\EAC\14 - Litany.wav
Peak level 42.1 % Extraction speed 8.4 X Track quality 100.0 % Test CRC 836390DA Copy CRC 836390DA Track not present in AccurateRip database Copy OK
None of the tracks are present in the AccurateRip database
No errors occurred
End of status report
==== Log checksum D92D3AC6056957FB60DFE6551027A44B0B7FEF47344DE16768BB29CB5633F9DE ====

LOG (.CUE):

REM GENRE ClassicalREM DATE 2015REM DISCID B80D0F0EREM COMMENT "ExactAudioCopy v1.0b3"PERFORMER "Choir of the Mekhitarist Community of San Lazzaro"TITLE "Armenia. Liturgical Chants - Mekhitarist Community of Venice"FILE "01 - Louys Araritch Lousso (Hymn to the Light of the Trinity).wav" WAVE TRACK 01 AUDIO TITLE "Louys Araritch Lousso (Hymn to the Light of the Trinity)" PERFORMER "Choir of the Mekhitarist Community of San Lazzaro" INDEX 01 00:00:00FILE "02 - Ornemc Ezkez Anesghispen Hayr (The Return to the Father).wav" WAVE TRACK 02 AUDIO TITLE "Ornemc Ezkez Anesghispen Hayr (The Return to the Father)" PERFORMER "Choir of the Mekhitarist Community of San Lazzaro" INDEX 01 00:00:00FILE "03 - Vor Eshorourt Ko Kalesdiant (The Last Coming of Christ).wav" WAVE TRACK 03 AUDIO TITLE "Vor Eshorourt Ko Kalesdiant (The Last Coming of Christ)" PERFORMER "Choir of the Mekhitarist Community of San Lazzaro" INDEX 01 00:00:00FILE "04 - Houys Im (My Hope).wav" WAVE TRACK 04 AUDIO TITLE "Houys Im (My Hope)" PERFORMER "Choir of the Mekhitarist Community of San Lazzaro" INDEX 01 00:00:00FILE "05 - Ourah Ler Sourp Yeghehetzi (The Joy of the Church).wav" WAVE TRACK 05 AUDIO TITLE "Ourah Ler Sourp Yeghehetzi (The Joy of the Church)" PERFORMER "Choir of the Mekhitarist Community of San Lazzaro" INDEX 01 00:00:00FILE "06 - Patz Mez Der (Open for Us, O Lord).wav" WAVE TRACK 06 AUDIO TITLE "Patz Mez Der (Open for Us, O Lord)" PERFORMER "Choir of the Mekhitarist Community of San Lazzaro" INDEX 01 00:00:00FILE "07 - Aleluia!.wav" WAVE TRACK 07 AUDIO TITLE "Aleluia!" PERFORMER "Choir of the Mekhitarist Community of San Lazzaro" INDEX 01 00:00:00FILE "08 - Psalm of Lament.wav" WAVE TRACK 08 AUDIO TITLE "Psalm of Lament" PERFORMER "Choir of the Mekhitarist Community of San Lazzaro" INDEX 01 00:00:00FILE "09 - Arzatsirouty Ampen (The Betrayal).wav" WAVE TRACK 09 AUDIO TITLE "Arzatsirouty Ampen (The Betrayal)" PERFORMER "Choir of the Mekhitarist Community of San Lazzaro" INDEX 01 00:00:00FILE "10 - Zartyav Agheghen (Alleluia for Good Friday).wav" WAVE TRACK 10 AUDIO TITLE "Zartyav Agheghen (Alleluia for Good Friday)" PERFORMER "Choir of the Mekhitarist Community of San Lazzaro" INDEX 01 00:00:00FILE "11 - Zartyav Agheghen (Alleluia for Good Friday).wav" WAVE TRACK 11 AUDIO TITLE "Zartyav Agheghen (Alleluia for Good Friday)" PERFORMER "Choir of the Mekhitarist Community of San Lazzaro" INDEX 01 00:00:00FILE "12 - Zartyav Agheghen (Alleluia for Good Friday).wav" WAVE TRACK 12 AUDIO TITLE "Zartyav Agheghen (Alleluia for Good Friday)" PERFORMER "Choir of the Mekhitarist Community of San Lazzaro" INDEX 01 00:00:00FILE "13 - Aysor Haryav (The Resurrection of Christ).wav" WAVE TRACK 13 AUDIO TITLE "Aysor Haryav (The Resurrection of Christ)" PERFORMER "Choir of the Mekhitarist Community of San Lazzaro" INDEX 01 00:00:00FILE "14 - Litany.wav" WAVE TRACK 14 AUDIO TITLE "Litany" PERFORMER "Choir of the Mekhitarist Community of San Lazzaro" INDEX 01 00:00:00
-mp3
[teatrix.ru].t7826.torrent 
Торрент: Зарегистрирован [ 2015-10-14 02:42 ] · E2006641DEEBFE3A8FBE572A9762F0C2D8B56BC1

Скачать .torrent

Скачать

13 KB

Статус: проверено
Скачан: 0 раз
Размер: 283 MB
terms.php



Быстрый ответ

Имя:

      
Для отправки сообщений необходимо включить JavaScript
Показать сообщения:    

Текущее время: 04-Дек 23:25

Часовой пояс: UTC + 3


Вы можете начинать темы
Вы можете отвечать на сообщения
Вы не можете редактировать свои сообщения
Вы не можете удалять свои сообщения
Вы не можете голосовать в опросах
Вы не можете прикреплять файлы к сообщениям
Вы можете скачивать файлы