(Classical) Dietrich Buxtehude - Scandinavian Cantatas - Theatre of Voices, Bine Bryndorf, Paul Hillier - 2010, FLAC (image+.cue) lossless


Статистика раздачи [Обновить пиров]
Размер:  282 MB   |    Зарегистрирован:  1 год 1 месяц   |    Скачан:  0 раз

Полного источника не было: Никогда

 
   
 
 
 

[Цитировать]

Dietrich Buxtehude - Scandinavian Cantatas - Theatre of Voices, Bine Bryndorf, Paul Hillier
Жанр: Classical
Страна-производитель диска: Denmark
Год издания диска: 2010
Издатель (лейбл): Dacapo
Номер по каталогу: 6.220534
Дата записи: 2010
Аудиокодек: FLAC
Тип рипа: image+.cue
Битрейт аудио: lossless
Продолжительность: 59:04
Источник: собственный рип
Наличие сканов в содержимом раздачи: да
Треклист:
Dietrich Buxtehude (c. 1637-1707)
[1] Prelude for Organ in E minor, BuxWV 142
[2] Pange lingua gloriosi, BuxWV 91
[3] Herren var Gud, BuxWV 40
[4] Ecce nunc benedicite Domino, BuxWV 23
[5] Att du Jesu vill mig hora, BuxWV 8
[6] Accedite gentes, BuxWV 1
[7] Passacaglia for Organ in D minor, BuxWV 161
[8]-[9] Missa alla brevis, BuxWV 114
[10] Domine salvum fac regem, BuxWV 18
Исполнители:
Theatre of Voices
The TOV Band
Bine Bryndorf
organ
Paul Hillier conductor

Лог создания рипа

Exact Audio Copy V1.1 from 23. June 2015
EAC extraction logfile from 29. August 2015, 17:36
Theatre of Voices, Bine Bryndorf, The TOV Band, Paul Hillier / Buxtehude - Scandinavian Cantatas
Used drive : HL-DT-STDVDRAM GU70N Adapter: 1 ID: 0
Read mode : SecureUtilize accurate stream : YesDefeat audio cache : YesMake use of C2 pointers : No
Read offset correction : 48Overread into Lead-In and Lead-Out : NoFill up missing offset samples with silence : YesDelete leading and trailing silent blocks : NoNull samples used in CRC calculations : YesUsed interface : Native Win32 interface for Win NT & 2000
Used output format : User Defined EncoderSelected bitrate : 128 kBit/sQuality : HighAdd ID3 tag : NoCommand line compressor : C:\Program Files (x86)\Exact Audio Copy\Flac\flac.exeAdditional command line options : -V -8 -T "Date=%year%" -T "Genre=%genre%" %source%
TOC of the extracted CD
Track | Start | Length | Start sector | End sector --------------------------------------------------------- 1 | 0:00.00 | 8:09.69 | 0 | 36743 2 | 8:09.69 | 7:23.12 | 36744 | 69980 3 | 15:33.06 | 5:39.27 | 69981 | 95432 4 | 21:12.33 | 6:39.71 | 95433 | 125428 5 | 27:52.29 | 5:05.20 | 125429 | 148323 6 | 32:57.49 | 6:06.73 | 148324 | 175846 7 | 39:04.47 | 5:57.30 | 175847 | 202651 8 | 45:02.02 | 3:15.40 | 202652 | 217316 9 | 48:17.42 | 5:29.06 | 217317 | 241997 10 | 53:46.48 | 5:18.25 | 241998 | 265872
Range status and errors
Selected range
Filename C:\temp\Buxtehude - Scandinavian Cantatas - Theatre of Voices, Hillier\Buxtehude - Scandinavian Cantatas.wav
Peak level 93.5 % Extraction speed 5.2 X Range quality 100.0 % Test CRC 7C0DF7B8 Copy CRC 7C0DF7B8 Copy OK
No errors occurred
AccurateRip summary
Track 1 accurately ripped (confidence 4) [C642CED6] (AR v2)Track 2 accurately ripped (confidence 4) [18041460] (AR v2)Track 3 accurately ripped (confidence 4) [55B003F8] (AR v2)Track 4 accurately ripped (confidence 4) [ADD5DDAB] (AR v2)Track 5 accurately ripped (confidence 4) [B2480C86] (AR v2)Track 6 accurately ripped (confidence 4) [88E506A1] (AR v2)Track 7 accurately ripped (confidence 4) [8A764041] (AR v2)Track 8 accurately ripped (confidence 4) [2FAA10CB] (AR v2)Track 9 accurately ripped (confidence 4) [978348B6] (AR v2)Track 10 accurately ripped (confidence 4) [DF7A3C2B] (AR v2)
All tracks accurately ripped
End of status report
==== Log checksum 4DFD755DCC2A54FB57D94DF8BB2E939B4638B4CE72E88DA3F943B8402E0F54EF ====
[teatrix.ru].t7827.torrent 
Торрент: Зарегистрирован [ 2015-10-14 02:42 ] · 8350ABCB140E52B9E9196144EE6854BC90E2FD59

Скачать .torrent

Скачать

23 KB

Статус: проверено
Скачан: 0 раз
Размер: 282 MB
terms.php



Быстрый ответ

Имя:

      
Для отправки сообщений необходимо включить JavaScript
Показать сообщения:    

Текущее время: 10-Дек 00:18

Часовой пояс: UTC + 3


Вы можете начинать темы
Вы можете отвечать на сообщения
Вы не можете редактировать свои сообщения
Вы не можете удалять свои сообщения
Вы не можете голосовать в опросах
Вы не можете прикреплять файлы к сообщениям
Вы можете скачивать файлы