(Classical) John Sheppard · Media vita (stile antico) · 2010, FLAC (tracks+.cue) lossless


Статистика раздачи [Обновить пиров]
Размер:  274 MB   |    Зарегистрирован:  1 год 1 месяц   |    Скачан:  0 раз

Полного источника не было: Никогда

 
   
 
 
 

[Цитировать]

John Sheppard
Media vita

Жанр: classical
Страна-производитель диска: USA
Год издания диска: 2010
Издатель: Harmonia Mundi
Номер по каталогу: HMU 807509
Дата записи: март 2009
Аудиокодек: FLAC
Тип рипа: tracks+.cue
Битрейт аудио: lossless
Продолжительность: 01:10:14
Источник: скачано с what.cd
Буклет в содержимом раздачи частично представлен
Исполнители: stile antico
Треклист:
01. Responsory: Gaude, gaude, gaude Maria (14:13)
02. Responsory: The Lord’s Prayer (4:19)
03. Anthem: I give you a new commandment (3:00)
04. Antiphon: Media vita (25:32)
05. Anthem: Christ rising again (4:23)
06. Anthem: Haste thee, O God (3:34)
07. Hymn: Te Deum (15:14)

Лог создания рипа

Exact Audio Copy V0.99 prebeta 5 from 4. May 2009
EAC extraction logfile from 14. June 2010, 0:00
Stile Antico / Media Vita
Used drive : TSSTcorpCD/DVDW SH-S183A Adapter: 5 ID: 0
Read mode : SecureUtilize accurate stream : YesDefeat audio cache : YesMake use of C2 pointers : No
Read offset correction : 6Overread into Lead-In and Lead-Out : NoFill up missing offset samples with silence : YesDelete leading and trailing silent blocks : NoNull samples used in CRC calculations : YesUsed interface : Native Win32 interface for Win NT & 2000Gap handling : Appended to previous track
Used output format : User Defined EncoderSelected bitrate : 256 kBit/sQuality : HighAdd ID3 tag : NoCommand line compressor : C:\Program Files (x86)\FLAC\flac.exeAdditional command line options : -8 -V -T "ARTIST=%a" -T "TITLE=%t" -T "ALBUM=%g" -T "DATE=%y" -T "TRACKNUMBER=%n" -T "GENRE=%m" -T "COMMENT=%e" %s -o %d
TOC of the extracted CD
Track | Start | Length | Start sector | End sector --------------------------------------------------------- 1 | 0:00.00 | 14:12.46 | 0 | 63945 2 | 14:12.46 | 4:18.57 | 63946 | 83352 3 | 18:31.28 | 2:59.43 | 83353 | 96820 4 | 21:30.71 | 25:31.62 | 96821 | 211707 5 | 47:02.58 | 4:23.12 | 211708 | 231444 6 | 51:25.70 | 3:33.45 | 231445 | 247464 7 | 54:59.40 | 15:14.23 | 247465 | 316037
Track 1
Filename D:\Music\Stile Antico - Media Vita\01 - Responsory - Gaude, gaude, gaude Maria.wav
Pre-gap length 0:00:02.00
Peak level 75.4 % Track quality 100.0 % Test CRC F34E4E4C Copy CRC F34E4E4C Accurately ripped (confidence 4) [5C9470A5] Copy OK
Track 2
Filename D:\Music\Stile Antico - Media Vita\02 - Responsory - The Lord's Prayer.wav
Peak level 58.6 % Track quality 100.0 % Test CRC FB389CBC Copy CRC FB389CBC Accurately ripped (confidence 4) [61638609] Copy OK
Track 3
Filename D:\Music\Stile Antico - Media Vita\03 - Anthem - I Give You A New Commandment.wav
Peak level 35.6 % Track quality 100.0 % Test CRC 23DA2913 Copy CRC 23DA2913 Accurately ripped (confidence 4) [799F28BA] Copy OK
Track 4
Filename D:\Music\Stile Antico - Media Vita\04 - Antiphon - Media Vita.wav
Peak level 91.2 % Track quality 99.9 % Test CRC 18F7F926 Copy CRC 18F7F926 Accurately ripped (confidence 4) [74646AB7] Copy OK
Track 5
Filename D:\Music\Stile Antico - Media Vita\05 - Anthem - Christ Rising Again.wav
Peak level 31.1 % Track quality 100.0 % Test CRC DF31334E Copy CRC DF31334E Accurately ripped (confidence 4) [3E98CA60] Copy OK
Track 6
Filename D:\Music\Stile Antico - Media Vita\06 - Anthem - Haste Thee, O God.wav
Peak level 59.7 % Track quality 100.0 % Test CRC 50577884 Copy CRC 50577884 Accurately ripped (confidence 4) [D086F2AA] Copy OK
Track 7
Filename D:\Music\Stile Antico - Media Vita\07 - Hymn - Te Deum.wav
Peak level 67.2 % Track quality 100.0 % Test CRC 0DCC4DD0 Copy CRC 0DCC4DD0 Accurately ripped (confidence 4) [E9D75788] Copy OK
All tracks accurately ripped
No errors occurred
End of status report

Содержание индексной карты (.CUE)

REM DATE 2010REM DISCID 50107507REM COMMENT "ExactAudioCopy v0.99pb5"PERFORMER "Stile Antico"TITLE "Media vita"FILE "01. Responsory. Gaude, gaude, gaude Maria.flac" WAVE TRACK 01 AUDIO TITLE "Responsory: Gaude, gaude, gaude Maria" PERFORMER "Stile Antico" INDEX 01 00:00:00FILE "02. Responsory. The Lord’s Prayer.flac" WAVE TRACK 02 AUDIO TITLE "Responsory: The Lord’s Prayer" PERFORMER "Stile Antico" INDEX 01 00:00:00FILE "03. Anthem. I give you a new commandment.flac" WAVE TRACK 03 AUDIO TITLE "Anthem: I give you a new commandment" PERFORMER "Stile Antico" INDEX 01 00:00:00FILE "04. Antiphon. Media vita.flac" WAVE TRACK 04 AUDIO TITLE "Antiphon: Media vita" PERFORMER "Stile Antico" INDEX 01 00:00:00FILE "05. Anthem. Christ rising again.flac" WAVE TRACK 05 AUDIO TITLE "Anthem: Christ rising again" PERFORMER "Stile Antico" INDEX 01 00:00:00FILE "06. Anthem. Haste thee, O God.flac" WAVE TRACK 06 AUDIO TITLE "Anthem: Haste thee, O God" PERFORMER "Stile Antico" INDEX 01 00:00:00FILE "07. Hymn. Te Deum.flac" WAVE TRACK 07 AUDIO TITLE "Hymn: Te Deum" PERFORMER "Stile Antico" INDEX 01 00:00:00
[teatrix.ru].t7828.torrent 
Торрент: Зарегистрирован [ 2015-10-14 02:42 ] · 7858A3A903786DA7557FD5C3A02AB1A66120915A

Скачать .torrent

Скачать

12 KB

Статус: проверено
Скачан: 0 раз
Размер: 274 MB
terms.php



Быстрый ответ

Имя:

      
Для отправки сообщений необходимо включить JavaScript
Показать сообщения:    

Текущее время: 02-Дек 21:08

Часовой пояс: UTC + 3


Вы можете начинать темы
Вы можете отвечать на сообщения
Вы не можете редактировать свои сообщения
Вы не можете удалять свои сообщения
Вы не можете голосовать в опросах
Вы не можете прикреплять файлы к сообщениям
Вы можете скачивать файлы