(Classical) Richard Rodney Bennett - Letters to Lindbergh: Choral works for young voices - NYCoS National Girls Choir, Christopher Bell, Philip Moore, Andrew West - 2012, FLAC (image+.cue) lossless


Статистика раздачи [Обновить пиров]
Размер:  235 MB   |    Зарегистрирован:  1 год 1 месяц   |    Скачан:  0 раз

Полного источника не было: Никогда

 
   
 
 
 

[Цитировать]

Richard Rodney Bennett - Letters to Lindbergh: Choral works for young voices - NYCoS National Girls Choir, Christopher Bell, Philip Moore, Andrew West
Жанр: Classical
Страна-производитель диска: UK
Год издания диска: 2012
Издатель (лейбл): Signum Records
Номер по каталогу: SIGCD325
Дата записи: 2012
Аудиокодек: FLAC
Тип рипа: image+.cue
Битрейт аудио: lossless
Продолжительность: 60:56
Источник: собственный рип
Наличие сканов в содержимом раздачи: да
Треклист:
Richard Rodney Bennett (b.1936)
[1]-[4] Letters to Lindbergh (1982)
[5] The Ballad of Sweet William (2003)
[6]-[10] The Aviary (1966)
[11]-[14] Dream-Songs (1986)
[15] A Song at Evening (2009)
[16]-[19] Four American Carols (2010)
[20]-[27] Over the Hills and Far Away (1991)
Philip Moore & Andrew West piano
Исполнители:
NYCoS National Girls Choir
Christopher Bell
conductor
Philip Moore & Andrew West piano

Лог создания рипа

Exact Audio Copy V1.0 beta 3 from 29. August 2011
EAC extraction logfile from 19. February 2015, 23:43
NYCoS National Girls Choir, Christopher Bell / Bennett - Letters to Lindbergh
Used drive : HL-DT-STDVDRAM GU70N Adapter: 0 ID: 0
Read mode : SecureUtilize accurate stream : YesDefeat audio cache : YesMake use of C2 pointers : No
Read offset correction : 48Overread into Lead-In and Lead-Out : NoFill up missing offset samples with silence : YesDelete leading and trailing silent blocks : NoNull samples used in CRC calculations : YesUsed interface : Native Win32 interface for Win NT & 2000
Used output format : User Defined EncoderSelected bitrate : 128 kBit/sQuality : HighAdd ID3 tag : NoCommand line compressor : C:\Program Files (x86)\Exact Audio Copy\Flac\flac.exeAdditional command line options : -V -8 -T "Date=%year%" -T "Genre=%genre%" %source%
TOC of the extracted CD
Track | Start | Length | Start sector | End sector --------------------------------------------------------- 1 | 0:00.00 | 1:13.25 | 0 | 5499 2 | 1:13.25 | 5:04.25 | 5500 | 28324 3 | 6:17.50 | 4:20.40 | 28325 | 47864 4 | 10:38.15 | 3:01.24 | 47865 | 61463 5 | 13:39.39 | 7:41.49 | 61464 | 96087 6 | 21:21.13 | 2:03.51 | 96088 | 105363 7 | 23:24.64 | 1:08.27 | 105364 | 110490 8 | 24:33.16 | 2:17.19 | 110491 | 120784 9 | 26:50.35 | 1:42.29 | 120785 | 128463 10 | 28:32.64 | 1:09.05 | 128464 | 133643 11 | 29:41.69 | 2:10.62 | 133644 | 143455 12 | 31:52.56 | 2:36.51 | 143456 | 155206 13 | 34:29.32 | 2:02.57 | 155207 | 164413 14 | 36:32.14 | 2:12.29 | 164414 | 174342 15 | 38:44.43 | 2:57.74 | 174343 | 187691 16 | 41:42.42 | 1:45.14 | 187692 | 195580 17 | 43:27.56 | 2:30.70 | 195581 | 206900 18 | 45:58.51 | 2:10.42 | 206901 | 216692 19 | 48:09.18 | 2:18.20 | 216693 | 227062 20 | 50:27.38 | 0:45.47 | 227063 | 230484 21 | 51:13.10 | 1:39.49 | 230485 | 237958 22 | 52:52.59 | 1:30.28 | 237959 | 244736 23 | 54:23.12 | 1:00.25 | 244737 | 249261 24 | 55:23.37 | 1:27.02 | 249262 | 255788 25 | 56:50.39 | 1:01.70 | 255789 | 260433 26 | 57:52.34 | 1:51.66 | 260434 | 268824 27 | 59:44.25 | 1:09.70 | 268825 | 274069
Range status and errors
Selected range
Filename C:\temp\Bennett - Letters to Lindbergh\Bennett - Letters to Lindbergh.wav
Peak level 85.4 % Extraction speed 5.3 X Range quality 100.0 % Test CRC 9AF1D25A Copy CRC 9AF1D25A Copy OK
No errors occurred
AccurateRip summary
Track 1 not present in databaseTrack 2 not present in databaseTrack 3 not present in databaseTrack 4 not present in databaseTrack 5 not present in databaseTrack 6 not present in databaseTrack 7 not present in databaseTrack 8 not present in databaseTrack 9 not present in databaseTrack 10 not present in databaseTrack 11 not present in databaseTrack 12 not present in databaseTrack 13 not present in databaseTrack 14 not present in databaseTrack 15 not present in databaseTrack 16 not present in databaseTrack 17 not present in databaseTrack 18 not present in databaseTrack 19 not present in databaseTrack 20 not present in databaseTrack 21 not present in databaseTrack 22 not present in databaseTrack 23 not present in databaseTrack 24 not present in databaseTrack 25 not present in databaseTrack 26 not present in databaseTrack 27 not present in database
None of the tracks are present in the AccurateRip database
End of status report
==== Log checksum 22940ADE51965E1F39EE9C46609EE2A16621D4CA79956172126C7FCB3890B91E ====
[teatrix.ru].t7829.torrent 
Торрент: Зарегистрирован [ 2015-10-14 02:42 ] · 99E95294A1BE166EEE83A6B03521B8FF270A98D1

Скачать .torrent

Скачать

38 KB

Статус: проверено
Скачан: 0 раз
Размер: 235 MB
terms.php



Быстрый ответ

Имя:

      
Для отправки сообщений необходимо включить JavaScript
Показать сообщения:    

Текущее время: 07-Дек 19:29

Часовой пояс: UTC + 3


Вы можете начинать темы
Вы можете отвечать на сообщения
Вы не можете редактировать свои сообщения
Вы не можете удалять свои сообщения
Вы не можете голосовать в опросах
Вы не можете прикреплять файлы к сообщениям
Вы можете скачивать файлы