(Classical) Parsegh Ganatchian/Каначян: Complete Works - Choral, Romance & Children\'s Songs (Tigran Hekekian, Armenian State Radio & TV Chamber Choir, Little Singers of Armenia) - 2000, FLAC (tracks+.cue) lossless


Статистика раздачи [Обновить пиров]
Размер:  631 MB   |    Зарегистрирован:  1 год 1 месяц   |    Скачан:  0 раз

Полного источника не было: Никогда

 
   
 
 
 

[Цитировать]

Parsegh Ganatchian/Каначян: Complete Works - Choral, Romance & Children's Songs (Tigran Hekekian, Armenian State Radio & TV Chamber Choir, Little Singers of Armenia)
Жанр: Classical
Год издания диска: 2000
Издатель (лейбл): Hamazkayin
Номер по каталогу:
Дата записи: 2000
Аудиокодек: FLAC
Тип рипа: tracks+.cue
Битрейт аудио: lossless
Продолжительность: 02:14:52
Источник: собственный рип
Наличие сканов в содержимом раздачи: да
Исполнители:
Parsegh Ganatchian
Armenian State Radio & TV Chamber Choir
Little Singers of Armenia
Tigran Hekekian

Треклист:

CD1
01. Shousho (03:26)
02. Haireni Karot (02:56)
03. Hop Kuluzar (02:19)
04. Dzov Acher (02:50)
05. Bam, Porotan (01:29)
06. Varderi Het (05:11)
07. Oror (for chorus) (03:54)
08. Bjingo (01:25)
09. Naro Jan (03:53)
10. Sossin (04:15)
11. Dzenkele, Menkele (02:49)
12. Ourin (03:05)
13. Khnjouyk (03:53)
14. Maralo (03:47)
15. Kailerg Kamavornerou (01:27)
16. Tzaigerg (02:34)
17. Dalilo (05:01)
CD2
01. Nanor (14:25)
02. Khaghagh Gisher (03:26)
03. Garoun Yekav (01:15)
04. Alvardi Yeraze (02:34)
05. Nennir Nai (04:42)
06. Hele Hele (02:34)
07. Gorani (06:09)
08. Dzidzernak (02:35)
09. Kamnerg (02:39)
10. Lousnakn Yelav (Quartet) (02:54)
11. Razmerg (01:54)
12. Oror (Lullaby) (03:59)
13. Hoy Nar (04:21)
CD3
01. Maireni Dorotz (Hymn to Our School) (01:53)
02. Park Mair Hoghin (Glory to the Motherland) (01:37)
03. Dzite (The Finch) (00:45)
04. Lousin (The Moon) (01:30)
05. Meghou (The Bee) (00:55)
06. Sev ampere (The Black Clouds) (01:25)
07. Giughi Artoun (Morning in the Village) (00:49)
08. Little Singers of Armenia / Inch Anoush (How Sweet) (01:33)
09. Dzenkele, Menkele ( A Bird's Song) (01:43)
10. Amper (Clouds) (01:14)
11. Menk Ke Sirenk (We Love) (00:42)
12. Ardviknerou Kailerg (Girl Scouts' March) (01:24)
13. Khnotzi (The Churn) (01:03)
14. Jakharak (The Spindle) (02:04)
15. Khakhag Gisher (Tranquil Night) (02:37)
16. Yerganevag (Children's Orchestra) (01:55)
17. Dzidzemakin Bouyne (The Swallow's Nest) (02:02)
18. Dprotzakan Kailerg (School March) (01:37)
19. Haireni Karot (Nostalgia for the Homeland) (02:35)

-

LOG EAC:CD1:

Exact Audio Copy V1.0 beta 3 from 29. August 2011
EAC extraction logfile from 25. July 2015, 14:46
Tigran Hekekian / Parsegh Ganatchian - Complete Works - CD1 - Choral works and Solo songs
Used drive : PIONEER DVD-RW DVR-221L Adapter: 2 ID: 0
Read mode : SecureUtilize accurate stream : YesDefeat audio cache : YesMake use of C2 pointers : No
Read offset correction : 6Overread into Lead-In and Lead-Out : NoFill up missing offset samples with silence : YesDelete leading and trailing silent blocks : NoNull samples used in CRC calculations : YesUsed interface : Installed external ASPI interfaceGap handling : Appended to previous track
Used output format : User Defined EncoderSelected bitrate : 768 kBit/sQuality : HighAdd ID3 tag : NoCommand line compressor : C:\Program Files\Exact Audio Copy\Flac\flac.exeAdditional command line options : -6 -V -T "ARTIST=%artist%" -T "TITLE=%title%" -T "ALBUM=%albumtitle%" -T "DATE=%year%" -T "TRACKNUMBER=%tracknr%" -T "GENRE=%genre%" -T "COMMENT=%comment%" -T "ALBUMARTIST=%albuminterpret%" -T "COMPOSER=%composer%" -T "DISCNUMBER=%cdnumber%" -T "TOTALDISCS=%totalcds%" -T "TOTALTRACKS=%numtracks%" %source% -o %dest%
TOC of the extracted CD
Track | Start | Length | Start sector | End sector --------------------------------------------------------- 1 | 0:00.00 | 3:26.00 | 0 | 15449 2 | 3:26.00 | 2:56.00 | 15450 | 28649 3 | 6:22.00 | 2:19.00 | 28650 | 39074 4 | 8:41.00 | 2:50.00 | 39075 | 51824 5 | 11:31.00 | 1:29.00 | 51825 | 58499 6 | 13:00.00 | 5:11.00 | 58500 | 81824 7 | 18:11.00 | 3:54.00 | 81825 | 99374 8 | 22:05.00 | 1:25.00 | 99375 | 105749 9 | 23:30.00 | 3:53.00 | 105750 | 123224 10 | 27:23.00 | 4:15.00 | 123225 | 142349 11 | 31:38.00 | 2:49.00 | 142350 | 155024 12 | 34:27.00 | 3:05.00 | 155025 | 168899 13 | 37:32.00 | 3:53.00 | 168900 | 186374 14 | 41:25.00 | 3:47.00 | 186375 | 203399 15 | 45:12.00 | 1:27.00 | 203400 | 209924 16 | 46:39.00 | 2:34.00 | 209925 | 221474 17 | 49:13.00 | 5:01.00 | 221475 | 244049
Track 1
Filename D:\EAC\01 - Shousho.wav
Pre-gap length 0:00:02.00
Peak level 100.0 % Extraction speed 4.3 X Track quality 100.0 % Test CRC E976A80D Copy CRC E976A80D Track not present in AccurateRip database Copy OK
Track 2
Filename D:\EAC\02 - Haireni Karot.wav
Peak level 99.5 % Extraction speed 4.5 X Track quality 100.0 % Test CRC BAD5278F Copy CRC BAD5278F Track not present in AccurateRip database Copy OK
Track 3
Filename D:\EAC\03 - Hop Kuluzar.wav
Peak level 93.1 % Extraction speed 4.5 X Track quality 100.0 % Test CRC 4B3CE857 Copy CRC 4B3CE857 Track not present in AccurateRip database Copy OK
Track 4
Filename D:\EAC\04 - Dzov Acher.wav
Peak level 77.1 % Extraction speed 2.0 X Track quality 99.9 % Test CRC D947FF67 Copy CRC D947FF67 Track not present in AccurateRip database Copy OK
Track 5
Filename D:\EAC\05 - Bam, Porotan.wav
Peak level 79.4 % Extraction speed 4.4 X Track quality 100.0 % Test CRC 1FA1D8D7 Copy CRC 1FA1D8D7 Track not present in AccurateRip database Copy OK
Track 6
Filename D:\EAC\06 - Varderi Het.wav
Peak level 94.4 % Extraction speed 5.7 X Track quality 100.0 % Test CRC 0FDE5C54 Copy CRC 0FDE5C54 Track not present in AccurateRip database Copy OK
Track 7
Filename D:\EAC\07 - Oror (for chorus).wav
Peak level 75.9 % Extraction speed 6.1 X Track quality 100.0 % Test CRC F63ACC0B Copy CRC F63ACC0B Track not present in AccurateRip database Copy OK
Track 8
Filename D:\EAC\08 - Bjingo.wav
Peak level 86.0 % Extraction speed 1.5 X Track quality 99.8 % Test CRC 3F90F816 Copy CRC 3F90F816 Track not present in AccurateRip database Copy OK
Track 9
Filename D:\EAC\09 - Naro Jan.wav
Peak level 100.0 % Extraction speed 6.1 X Track quality 100.0 % Test CRC 0FE12160 Copy CRC 0FE12160 Track not present in AccurateRip database Copy OK
Track 10
Filename D:\EAC\10 - Sossin.wav
Peak level 100.0 % Extraction speed 6.9 X Track quality 100.0 % Test CRC 6230C54C Copy CRC 6230C54C Track not present in AccurateRip database Copy OK
Track 11
Filename D:\EAC\11 - Dzenkele, Menkele.wav
Peak level 100.0 % Extraction speed 2.5 X Track quality 99.9 % Test CRC D1672E84 Copy CRC D1672E84 Track not present in AccurateRip database Copy OK
Track 12
Filename D:\EAC\12 - Ourin.wav
Peak level 100.0 % Extraction speed 7.4 X Track quality 100.0 % Test CRC 294A1424 Copy CRC 294A1424 Track not present in AccurateRip database Copy OK
Track 13
Filename D:\EAC\13 - Khnjouyk.wav
Peak level 100.0 % Extraction speed 7.7 X Track quality 100.0 % Test CRC 3F68DC15 Copy CRC 3F68DC15 Track not present in AccurateRip database Copy OK
Track 14
Filename D:\EAC\14 - Maralo.wav
Peak level 100.0 % Extraction speed 7.9 X Track quality 100.0 % Test CRC D0E48294 Copy CRC D0E48294 Track not present in AccurateRip database Copy OK
Track 15
Filename D:\EAC\15 - Kailerg Kamavornerou.wav
Peak level 100.0 % Extraction speed 6.5 X Track quality 100.0 % Test CRC 5D054184 Copy CRC 5D054184 Track not present in AccurateRip database Copy OK
Track 16
Filename D:\EAC\16 - Tzaigerg.wav
Peak level 100.0 % Extraction speed 3.0 X Track quality 99.9 % Test CRC 3905598C Copy CRC 3905598C Track not present in AccurateRip database Copy OK
Track 17
Filename D:\EAC\17 - Dalilo.wav
Peak level 100.0 % Extraction speed 8.9 X Track quality 100.0 % Test CRC 6E898BD1 Copy CRC 6E898BD1 Track not present in AccurateRip database Copy OK
None of the tracks are present in the AccurateRip database
No errors occurred
End of status report
==== Log checksum 0125ED223A2A7113B453F984A0158A566224D5594AA2DE4EAE3FC5E7CD6AF1F6 ====

CD2:

Exact Audio Copy V1.0 beta 3 from 29. August 2011
EAC extraction logfile from 25. July 2015, 15:13
Tigran Hekekian / Parsegh Ganatchian - Complete Works - CD2 - Choral works and Solo songs
Used drive : PIONEER DVD-RW DVR-221L Adapter: 2 ID: 0
Read mode : SecureUtilize accurate stream : YesDefeat audio cache : YesMake use of C2 pointers : No
Read offset correction : 6Overread into Lead-In and Lead-Out : NoFill up missing offset samples with silence : YesDelete leading and trailing silent blocks : NoNull samples used in CRC calculations : YesUsed interface : Installed external ASPI interfaceGap handling : Appended to previous track
Used output format : User Defined EncoderSelected bitrate : 768 kBit/sQuality : HighAdd ID3 tag : NoCommand line compressor : C:\Program Files\Exact Audio Copy\Flac\flac.exeAdditional command line options : -6 -V -T "ARTIST=%artist%" -T "TITLE=%title%" -T "ALBUM=%albumtitle%" -T "DATE=%year%" -T "TRACKNUMBER=%tracknr%" -T "GENRE=%genre%" -T "COMMENT=%comment%" -T "ALBUMARTIST=%albuminterpret%" -T "COMPOSER=%composer%" -T "DISCNUMBER=%cdnumber%" -T "TOTALDISCS=%totalcds%" -T "TOTALTRACKS=%numtracks%" %source% -o %dest%
TOC of the extracted CD
Track | Start | Length | Start sector | End sector --------------------------------------------------------- 1 | 0:00.00 | 14:25.00 | 0 | 64874 2 | 14:25.00 | 3:26.00 | 64875 | 80324 3 | 17:51.00 | 1:15.00 | 80325 | 85949 4 | 19:06.00 | 2:34.00 | 85950 | 97499 5 | 21:40.00 | 4:42.00 | 97500 | 118649 6 | 26:22.00 | 2:34.00 | 118650 | 130199 7 | 28:56.00 | 6:09.00 | 130200 | 157874 8 | 35:05.00 | 2:35.00 | 157875 | 169499 9 | 37:40.00 | 2:39.00 | 169500 | 181424 10 | 40:19.00 | 2:54.00 | 181425 | 194474 11 | 43:13.00 | 1:54.00 | 194475 | 203024 12 | 45:07.00 | 3:59.00 | 203025 | 220949 13 | 49:06.00 | 4:21.00 | 220950 | 240524
Track 1
Filename D:\EAC\01 - Nanor.wav
Pre-gap length 0:00:02.00
Peak level 100.0 % Extraction speed 5.5 X Track quality 100.0 % Test CRC F2A715BA Copy CRC F2A715BA Track not present in AccurateRip database Copy OK
Track 2
Filename D:\EAC\02 - Khaghagh Gisher.wav
Pre-gap length 0:00:02.00
Peak level 100.0 % Extraction speed 5.9 X Track quality 100.0 % Test CRC 5B29F742 Copy CRC 5B29F742 Track not present in AccurateRip database Copy OK
Track 3
Filename D:\EAC\03 - Garoun Yekav.wav
Pre-gap length 0:00:02.00
Peak level 79.4 % Extraction speed 1.3 X Track quality 99.8 % Test CRC 0BAF0887 Copy CRC 0BAF0887 Track not present in AccurateRip database Copy OK
Track 4
Filename D:\EAC\04 - Alvardi Yeraze.wav
Pre-gap length 0:00:02.00
Peak level 79.4 % Extraction speed 2.3 X Track quality 99.9 % Test CRC 4CCA2333 Copy CRC 4CCA2333 Track not present in AccurateRip database Copy OK
Track 5
Filename D:\EAC\05 - Nennir Nai.wav
Pre-gap length 0:00:02.00
Peak level 100.0 % Extraction speed 6.8 X Track quality 100.0 % Test CRC B272F43D Copy CRC B272F43D Track not present in AccurateRip database Copy OK
Track 6
Filename D:\EAC\06 - Hele Hele.wav
Pre-gap length 0:00:02.00
Peak level 100.0 % Extraction speed 2.5 X Track quality 99.9 % Test CRC 9E7AA56B Copy CRC 9E7AA56B Track not present in AccurateRip database Copy OK
Track 7
Filename D:\EAC\07 - Gorani.wav
Pre-gap length 0:00:02.00
Peak level 100.0 % Extraction speed 7.7 X Track quality 100.0 % Test CRC 91D20B03 Copy CRC 91D20B03 Track not present in AccurateRip database Copy OK
Track 8
Filename D:\EAC\08 - Dzidzernak.wav
Pre-gap length 0:00:02.00
Peak level 88.2 % Extraction speed 2.7 X Track quality 99.9 % Test CRC 42AAA0AE Copy CRC 42AAA0AE Track not present in AccurateRip database Copy OK
Track 9
Filename D:\EAC\09 - Kamnerg.wav
Pre-gap length 0:00:02.00
Peak level 80.0 % Extraction speed 2.9 X Track quality 99.9 % Test CRC 51039A17 Copy CRC 51039A17 Track not present in AccurateRip database Copy OK
Track 10
Filename D:\EAC\10 - Lousnakn Yelav (Quartet).wav
Pre-gap length 0:00:02.00
Peak level 89.1 % Extraction speed 7.5 X Track quality 100.0 % Test CRC B767F5E1 Copy CRC B767F5E1 Track not present in AccurateRip database Copy OK
Track 11
Filename D:\EAC\11 - Razmerg.wav
Pre-gap length 0:00:02.00
Peak level 79.5 % Extraction speed 7.1 X Track quality 100.0 % Test CRC 6C556F48 Copy CRC 6C556F48 Track not present in AccurateRip database Copy OK
Track 12
Filename D:\EAC\12 - Oror (Lullaby).wav
Pre-gap length 0:00:02.00
Peak level 100.0 % Extraction speed 8.0 X Track quality 100.0 % Test CRC 91C6BFF1 Copy CRC 91C6BFF1 Track not present in AccurateRip database Copy OK
Track 13
Filename D:\EAC\13 - Hoy Nar.wav
Pre-gap length 0:00:02.00
Peak level 99.4 % Extraction speed 8.5 X Track quality 100.0 % Test CRC E1CED764 Copy CRC E1CED764 Track not present in AccurateRip database Copy OK
None of the tracks are present in the AccurateRip database
No errors occurred
End of status report
==== Log checksum 40B4807294B6B1C8C950620C96CD56CD5871D57F7EB597293CC8E76A93E54E5E ====

CD3:

Exact Audio Copy V1.0 beta 3 from 29. August 2011
EAC extraction logfile from 25. July 2015, 15:36
Tigran Hekekian / Parsegh Ganatchian - Complete Works - CD 3: Children's Songs
Used drive : PIONEER DVD-RW DVR-221L Adapter: 2 ID: 0
Read mode : SecureUtilize accurate stream : YesDefeat audio cache : YesMake use of C2 pointers : No
Read offset correction : 6Overread into Lead-In and Lead-Out : NoFill up missing offset samples with silence : YesDelete leading and trailing silent blocks : NoNull samples used in CRC calculations : YesUsed interface : Installed external ASPI interfaceGap handling : Appended to previous track
Used output format : User Defined EncoderSelected bitrate : 768 kBit/sQuality : HighAdd ID3 tag : NoCommand line compressor : C:\Program Files\Exact Audio Copy\Flac\flac.exeAdditional command line options : -6 -V -T "ARTIST=%artist%" -T "TITLE=%title%" -T "ALBUM=%albumtitle%" -T "DATE=%year%" -T "TRACKNUMBER=%tracknr%" -T "GENRE=%genre%" -T "COMMENT=%comment%" -T "ALBUMARTIST=%albuminterpret%" -T "COMPOSER=%composer%" -T "DISCNUMBER=%cdnumber%" -T "TOTALDISCS=%totalcds%" -T "TOTALTRACKS=%numtracks%" %source% -o %dest%
TOC of the extracted CD
Track | Start | Length | Start sector | End sector --------------------------------------------------------- 1 | 0:00.00 | 1:53.00 | 0 | 8474 2 | 1:53.00 | 1:37.00 | 8475 | 15749 3 | 3:30.00 | 0:45.00 | 15750 | 19124 4 | 4:15.00 | 1:30.00 | 19125 | 25874 5 | 5:45.00 | 0:55.00 | 25875 | 29999 6 | 6:40.00 | 1:25.00 | 30000 | 36374 7 | 8:05.00 | 0:49.00 | 36375 | 40049 8 | 8:54.00 | 1:33.00 | 40050 | 47024 9 | 10:27.00 | 1:43.00 | 47025 | 54749 10 | 12:10.00 | 1:14.00 | 54750 | 60299 11 | 13:24.00 | 0:42.00 | 60300 | 63449 12 | 14:06.00 | 1:24.00 | 63450 | 69749 13 | 15:30.00 | 1:03.00 | 69750 | 74474 14 | 16:33.00 | 2:04.00 | 74475 | 83774 15 | 18:37.00 | 2:37.00 | 83775 | 95549 16 | 21:14.00 | 1:55.00 | 95550 | 104174 17 | 23:09.00 | 2:02.00 | 104175 | 113324 18 | 25:11.00 | 1:37.00 | 113325 | 120599 19 | 26:48.00 | 2:35.00 | 120600 | 132224
Track 1
Filename D:\EAC\01 - Maireni Dorotz (Hymn to Our School).wav
Pre-gap length 0:00:02.00
Peak level 100.0 % Extraction speed 3.7 X Track quality 100.0 % Test CRC D70C4CBC Copy CRC D70C4CBC Track not present in AccurateRip database Copy OK
Track 2
Filename D:\EAC\02 - Park Mair Hoghin (Glory to the Motherland).wav
Peak level 89.0 % Extraction speed 3.7 X Track quality 100.0 % Test CRC DF87869D Copy CRC DF87869D Track not present in AccurateRip database Copy OK
Track 3
Filename D:\EAC\03 - Dzite (The Finch).wav
Peak level 100.0 % Extraction speed 2.8 X Track quality 100.0 % Test CRC 2DBAE9FA Copy CRC 2DBAE9FA Track not present in AccurateRip database Copy OK
Track 4
Filename D:\EAC\04 - Lousin (The Moon).wav
Peak level 79.4 % Extraction speed 3.8 X Track quality 100.0 % Test CRC C4C77455 Copy CRC C4C77455 Track not present in AccurateRip database Copy OK
Track 5
Filename D:\EAC\05 - Meghou (The Bee).wav
Peak level 84.4 % Extraction speed 3.2 X Track quality 100.0 % Test CRC 726C3B51 Copy CRC 726C3B51 Track not present in AccurateRip database Copy OK
Track 6
Filename D:\EAC\06 - Sev ampere (The Black Clouds).wav
Peak level 100.0 % Extraction speed 1.2 X Track quality 99.8 % Test CRC 20CA4F60 Copy CRC 20CA4F60 Track not present in AccurateRip database Copy OK
Track 7
Filename D:\EAC\07 - Giughi Artoun (Morning in the Village).wav
Peak level 94.3 % Extraction speed 3.2 X Track quality 100.0 % Test CRC 3561F5E8 Copy CRC 3561F5E8 Track not present in AccurateRip database Copy OK
Track 8
Filename D:\EAC\08 - Little Singers of Armenia , Inch Anoush (How Sweet).wav
Peak level 99.7 % Extraction speed 4.4 X Track quality 100.0 % Test CRC D4BCB837 Copy CRC D4BCB837 Track not present in AccurateRip database Copy OK
Track 9
Filename D:\EAC\09 - Dzenkele, Menkele ( A Bird's Song).wav
Peak level 89.0 % Extraction speed 4.6 X Track quality 100.0 % Test CRC A7FFC132 Copy CRC A7FFC132 Track not present in AccurateRip database Copy OK
Track 10
Filename D:\EAC\10 - Amper (Clouds).wav
Peak level 97.5 % Extraction speed 1.2 X Track quality 99.8 % Test CRC 1D7A3204 Copy CRC 1D7A3204 Track not present in AccurateRip database Copy OK
Track 11
Filename D:\EAC\11 - Menk Ke Sirenk (We Love).wav
Peak level 89.0 % Extraction speed 3.2 X Track quality 100.0 % Test CRC 4A8C2357 Copy CRC 4A8C2357 Track not present in AccurateRip database Copy OK
Track 12
Filename D:\EAC\12 - Ardviknerou Kailerg (Girl Scouts' March).wav
Peak level 100.0 % Extraction speed 1.3 X Track quality 99.8 % Test CRC 6901ACA3 Copy CRC 6901ACA3 Track not present in AccurateRip database Copy OK
Track 13
Filename D:\EAC\13 - Khnotzi (The Churn).wav
Peak level 100.0 % Extraction speed 4.0 X Track quality 100.0 % Test CRC 31D37BE2 Copy CRC 31D37BE2 Track not present in AccurateRip database Copy OK
Track 14
Filename D:\EAC\14 - Jakharak (The Spindle).wav
Peak level 100.0 % Extraction speed 5.4 X Track quality 100.0 % Test CRC F0EE16EA Copy CRC F0EE16EA Track not present in AccurateRip database Copy OK
Track 15
Filename D:\EAC\15 - Khakhag Gisher (Tranquil Night).wav
Peak level 76.3 % Extraction speed 2.3 X Track quality 99.9 % Test CRC 52D88BD9 Copy CRC 52D88BD9 Track not present in AccurateRip database Copy OK
Track 16
Filename D:\EAC\16 - Yerganevag (Children's Orchestra).wav
Peak level 99.2 % Extraction speed 5.6 X Track quality 100.0 % Test CRC BEC7E3CD Copy CRC BEC7E3CD Track not present in AccurateRip database Copy OK
Track 17
Filename D:\EAC\17 - Dzidzemakin Bouyne (The Swallow's Nest).wav
Peak level 98.3 % Extraction speed 5.8 X Track quality 100.0 % Test CRC 4454EFDB Copy CRC 4454EFDB Track not present in AccurateRip database Copy OK
Track 18
Filename D:\EAC\18 - Dprotzakan Kailerg (School March).wav
Peak level 100.0 % Extraction speed 5.6 X Track quality 100.0 % Test CRC 0EE1D2FC Copy CRC 0EE1D2FC Track not present in AccurateRip database Copy OK
Track 19
Filename D:\EAC\19 - Haireni Karot (Nostalgia for the Homeland).wav
Peak level 100.0 % Extraction speed 6.2 X Track quality 100.0 % Test CRC 882F2AB8 Copy CRC 882F2AB8 Track not present in AccurateRip database Copy OK
None of the tracks are present in the AccurateRip database
No errors occurred
End of status report
==== Log checksum 571CF02B8894E6255E178019D21FECB92E4D136DF8F924A204191CF95229E00B ====

LOG (.CUE):CD1:

REM GENRE ClassicalREM DATE 2000REM DISCID E50CB611REM COMMENT "ExactAudioCopy v1.0b3"PERFORMER "Tigran Hekekian"TITLE "Parsegh Ganatchian - Complete Works - CD1 - Choral works and Solo songs"FILE "01 - Shousho.wav" WAVE TRACK 01 AUDIO TITLE "Shousho" PERFORMER "Tigran Hekekian" INDEX 01 00:00:00FILE "02 - Haireni Karot.wav" WAVE TRACK 02 AUDIO TITLE "Haireni Karot" PERFORMER "Tigran Hekekian" INDEX 01 00:00:00FILE "03 - Hop Kuluzar.wav" WAVE TRACK 03 AUDIO TITLE "Hop Kuluzar" PERFORMER "Tigran Hekekian" INDEX 01 00:00:00FILE "04 - Dzov Acher.wav" WAVE TRACK 04 AUDIO TITLE "Dzov Acher" PERFORMER "Tigran Hekekian" INDEX 01 00:00:00FILE "05 - Bam, Porotan.wav" WAVE TRACK 05 AUDIO TITLE "Bam, Porotan" PERFORMER "Tigran Hekekian" INDEX 01 00:00:00FILE "06 - Varderi Het.wav" WAVE TRACK 06 AUDIO TITLE "Varderi Het" PERFORMER "Tigran Hekekian" INDEX 01 00:00:00FILE "07 - Oror (for chorus).wav" WAVE TRACK 07 AUDIO TITLE "Oror (for chorus)" PERFORMER "Tigran Hekekian" INDEX 01 00:00:00FILE "08 - Bjingo.wav" WAVE TRACK 08 AUDIO TITLE "Bjingo" PERFORMER "Tigran Hekekian" INDEX 01 00:00:00FILE "09 - Naro Jan.wav" WAVE TRACK 09 AUDIO TITLE "Naro Jan" PERFORMER "Tigran Hekekian" INDEX 01 00:00:00FILE "10 - Sossin.wav" WAVE TRACK 10 AUDIO TITLE "Sossin" PERFORMER "Tigran Hekekian" INDEX 01 00:00:00FILE "11 - Dzenkele, Menkele.wav" WAVE TRACK 11 AUDIO TITLE "Dzenkele, Menkele" PERFORMER "Tigran Hekekian" INDEX 01 00:00:00FILE "12 - Ourin.wav" WAVE TRACK 12 AUDIO TITLE "Ourin" PERFORMER "Tigran Hekekian" INDEX 01 00:00:00FILE "13 - Khnjouyk.wav" WAVE TRACK 13 AUDIO TITLE "Khnjouyk" PERFORMER "Tigran Hekekian" INDEX 01 00:00:00FILE "14 - Maralo.wav" WAVE TRACK 14 AUDIO TITLE "Maralo" PERFORMER "Tigran Hekekian" INDEX 01 00:00:00FILE "15 - Kailerg Kamavornerou.wav" WAVE TRACK 15 AUDIO TITLE "Kailerg Kamavornerou" PERFORMER "Tigran Hekekian" INDEX 01 00:00:00FILE "16 - Tzaigerg.wav" WAVE TRACK 16 AUDIO TITLE "Tzaigerg" PERFORMER "Tigran Hekekian" INDEX 01 00:00:00FILE "17 - Dalilo.wav" WAVE TRACK 17 AUDIO TITLE "Dalilo" PERFORMER "Tigran Hekekian" INDEX 01 00:00:00

CD2:

REM GENRE ClassicalREM DATE 2000REM DISCID B80C870DREM COMMENT "ExactAudioCopy v1.0b3"PERFORMER "Tigran Hekekian"TITLE "Parsegh Ganatchian - Complete Works - CD2 - Choral works and Solo songs"FILE "01 - Nanor.wav" WAVE TRACK 01 AUDIO TITLE "Nanor" PERFORMER "Tigran Hekekian" INDEX 01 00:00:00 TRACK 02 AUDIO TITLE "Khaghagh Gisher" PERFORMER "Tigran Hekekian" INDEX 00 14:23:00FILE "02 - Khaghagh Gisher.wav" WAVE INDEX 01 00:00:00 TRACK 03 AUDIO TITLE "Garoun Yekav" PERFORMER "Tigran Hekekian" INDEX 00 03:24:00FILE "03 - Garoun Yekav.wav" WAVE INDEX 01 00:00:00 TRACK 04 AUDIO TITLE "Alvardi Yeraze" PERFORMER "Tigran Hekekian" INDEX 00 01:13:00FILE "04 - Alvardi Yeraze.wav" WAVE INDEX 01 00:00:00 TRACK 05 AUDIO TITLE "Nennir Nai" PERFORMER "Tigran Hekekian" INDEX 00 02:32:00FILE "05 - Nennir Nai.wav" WAVE INDEX 01 00:00:00 TRACK 06 AUDIO TITLE "Hele Hele" PERFORMER "Tigran Hekekian" INDEX 00 04:40:00FILE "06 - Hele Hele.wav" WAVE INDEX 01 00:00:00 TRACK 07 AUDIO TITLE "Gorani" PERFORMER "Tigran Hekekian" INDEX 00 02:32:00FILE "07 - Gorani.wav" WAVE INDEX 01 00:00:00 TRACK 08 AUDIO TITLE "Dzidzernak" PERFORMER "Tigran Hekekian" INDEX 00 06:07:00FILE "08 - Dzidzernak.wav" WAVE INDEX 01 00:00:00 TRACK 09 AUDIO TITLE "Kamnerg" PERFORMER "Tigran Hekekian" INDEX 00 02:33:00FILE "09 - Kamnerg.wav" WAVE INDEX 01 00:00:00 TRACK 10 AUDIO TITLE "Lousnakn Yelav (Quartet)" PERFORMER "Tigran Hekekian" INDEX 00 02:37:00FILE "10 - Lousnakn Yelav (Quartet).wav" WAVE INDEX 01 00:00:00 TRACK 11 AUDIO TITLE "Razmerg" PERFORMER "Tigran Hekekian" INDEX 00 02:52:00FILE "11 - Razmerg.wav" WAVE INDEX 01 00:00:00 TRACK 12 AUDIO TITLE "Oror (Lullaby)" PERFORMER "Tigran Hekekian" INDEX 00 01:52:00FILE "12 - Oror (Lullaby).wav" WAVE INDEX 01 00:00:00 TRACK 13 AUDIO TITLE "Hoy Nar" PERFORMER "Tigran Hekekian" INDEX 00 03:57:00FILE "13 - Hoy Nar.wav" WAVE INDEX 01 00:00:00

CD3:

REM GENRE ClassicalREM DATE 2000REM DISCID F106E313REM COMMENT "ExactAudioCopy v1.0b3"PERFORMER "Tigran Hekekian"TITLE "Parsegh Ganatchian - Complete Works - CD 3: Children's Songs"FILE "01 - Maireni Dorotz (Hymn to Our School).wav" WAVE TRACK 01 AUDIO TITLE "Maireni Dorotz (Hymn to Our School)" PERFORMER "Tigran Hekekian" INDEX 01 00:00:00FILE "02 - Park Mair Hoghin (Glory to the Motherland).wav" WAVE TRACK 02 AUDIO TITLE "Park Mair Hoghin (Glory to the Motherland)" PERFORMER "Tigran Hekekian" INDEX 01 00:00:00FILE "03 - Dzite (The Finch).wav" WAVE TRACK 03 AUDIO TITLE "Dzite (The Finch)" PERFORMER "Tigran Hekekian" INDEX 01 00:00:00FILE "04 - Lousin (The Moon).wav" WAVE TRACK 04 AUDIO TITLE "Lousin (The Moon)" PERFORMER "Tigran Hekekian" INDEX 01 00:00:00FILE "05 - Meghou (The Bee).wav" WAVE TRACK 05 AUDIO TITLE "Meghou (The Bee)" PERFORMER "Tigran Hekekian" INDEX 01 00:00:00FILE "06 - Sev ampere (The Black Clouds).wav" WAVE TRACK 06 AUDIO TITLE "Sev ampere (The Black Clouds)" PERFORMER "Tigran Hekekian" INDEX 01 00:00:00FILE "07 - Giughi Artoun (Morning in the Village).wav" WAVE TRACK 07 AUDIO TITLE "Giughi Artoun (Morning in the Village)" PERFORMER "Tigran Hekekian" INDEX 01 00:00:00FILE "08 - Little Singers of Armenia , Inch Anoush (How Sweet).wav" WAVE TRACK 08 AUDIO TITLE "Little Singers of Armenia / Inch Anoush (How Sweet)" PERFORMER "Tigran Hekekian" INDEX 01 00:00:00FILE "09 - Dzenkele, Menkele ( A Bird's Song).wav" WAVE TRACK 09 AUDIO TITLE "Dzenkele, Menkele ( A Bird's Song)" PERFORMER "Tigran Hekekian" INDEX 01 00:00:00FILE "10 - Amper (Clouds).wav" WAVE TRACK 10 AUDIO TITLE "Amper (Clouds)" PERFORMER "Tigran Hekekian" INDEX 01 00:00:00FILE "11 - Menk Ke Sirenk (We Love).wav" WAVE TRACK 11 AUDIO TITLE "Menk Ke Sirenk (We Love)" PERFORMER "Tigran Hekekian" INDEX 01 00:00:00FILE "12 - Ardviknerou Kailerg (Girl Scouts' March).wav" WAVE TRACK 12 AUDIO TITLE "Ardviknerou Kailerg (Girl Scouts' March)" PERFORMER "Tigran Hekekian" INDEX 01 00:00:00FILE "13 - Khnotzi (The Churn).wav" WAVE TRACK 13 AUDIO TITLE "Khnotzi (The Churn)" PERFORMER "Tigran Hekekian" INDEX 01 00:00:00FILE "14 - Jakharak (The Spindle).wav" WAVE TRACK 14 AUDIO TITLE "Jakharak (The Spindle)" PERFORMER "Tigran Hekekian" INDEX 01 00:00:00FILE "15 - Khakhag Gisher (Tranquil Night).wav" WAVE TRACK 15 AUDIO TITLE "Khakhag Gisher (Tranquil Night)" PERFORMER "Tigran Hekekian" INDEX 01 00:00:00FILE "16 - Yerganevag (Children's Orchestra).wav" WAVE TRACK 16 AUDIO TITLE "Yerganevag (Children's Orchestra)" PERFORMER "Tigran Hekekian" INDEX 01 00:00:00FILE "17 - Dzidzemakin Bouyne (The Swallow's Nest).wav" WAVE TRACK 17 AUDIO TITLE "Dzidzemakin Bouyne (The Swallow's Nest)" PERFORMER "Tigran Hekekian" INDEX 01 00:00:00FILE "18 - Dprotzakan Kailerg (School March).wav" WAVE TRACK 18 AUDIO TITLE "Dprotzakan Kailerg (School March)" PERFORMER "Tigran Hekekian" INDEX 01 00:00:00FILE "19 - Haireni Karot (Nostalgia for the Homeland).wav" WAVE TRACK 19 AUDIO TITLE "Haireni Karot (Nostalgia for the Homeland)" PERFORMER "Tigran Hekekian" INDEX 01 00:00:00
-mp3
[teatrix.ru].t7830.torrent 
Торрент: Зарегистрирован [ 2015-10-14 02:42 ] · 5B69726676403F057E61E731C2CEC7BCFD584BA0

Скачать .torrent

Скачать

17 KB

Статус: проверено
Скачан: 0 раз
Размер: 631 MB
terms.php



Быстрый ответ

Имя:

      
Для отправки сообщений необходимо включить JavaScript
Показать сообщения:    

Текущее время: 08-Дек 07:07

Часовой пояс: UTC + 3


Вы можете начинать темы
Вы можете отвечать на сообщения
Вы не можете редактировать свои сообщения
Вы не можете удалять свои сообщения
Вы не можете голосовать в опросах
Вы не можете прикреплять файлы к сообщениям
Вы можете скачивать файлы