(Sacred) Verdi - Messa da Requiem / Верди - Реквием (Birgit Nilsson, Lili Chookasian, Carlo Bergonzi, Ezio Flagello) / Gian Carlo Menotti - Death of the Bishop of Brindisi (George London) / Erich Leinsdorf - 1964 - Studio / FLAC (image+.cue),lossless


Статистика раздачи [Обновить пиров]
Размер:  585 MB   |    Зарегистрирован:  1 год 1 месяц   |    Скачан:  1 раз

Полного источника не было: 1 месяц 24 дня

 
   
 
 
 

[Цитировать]

Giuseppe Verdi - Messa da Requiem / Джузеппе Верди - Реквием (Birgit Nilsson, Lili Chookasian, Carlo Bergonzi, Ezio Flagello) / Gian Carlo Menotti - Death of the Bishop of Brindisi (George London) / Erich Leinsdorf, Boston Symphony Orchestra
Жанр: Sacred
Страна-производитель диска: CША
Год издания диска: 2001
Издатель (лейбл): RCA
Дата записи: 1964
Аудиокодек: FLAC
Тип рипа: image+.cue
Битрейт аудио: lossless
Продолжительность: 141:09
Источник: релизер (canariasesmusica)
Исполнители:
Giuseppe Verdi - Messa da Requiem:
Birgit Nilsson, soprano,
Lili Chookasian, mezzo-soprano,
Carlo Bergonzi, tenor,
Ezio Flagello, bass.
Recorded on October 5, 1964 - April 5, 1965 at Symphony Hall, Boston, MA.
Gian Carlo Menotti - Death of the Bishop of Brindisi (cantata for mezzo-soprano, bass, chorus, children's chorus & orchestra):
George London, bass,
Lili Chookasian, mezzo-soprano.
Recorded on October 19, 1964 at Symphony Hall, Boston, MA.
Erich Leinsdorf, Conductor,
Boston Symphony Orchestra,
Boston Chorus Pro Musica.

Треклист

Disc 1:
Giuseppe Verdi - Messa da Requiem:
1. Requiem & Kyrie
2. Dies Irae
3. Tuba Mirum
4. Mors Stupebit
5. Liber Scriptus
6. Quid Sum Miser
7. Rex Tremendae
8. Recordare
9. Ingemisco
10. Confutatis
11. Dies Irae
12. Lacrymosa
13. Domine Jesu Christe
14. Hostias
15. Sanctus
16. Agnus Dei
Disc 2:
1. Lux Aeterna
2. Libera Me, Domine
3. Dies Irae
4. Libera Me, Domine
Gian Carlo Menotti - Death of the Bishop of Brindisi:
5. And Now The Night Begins - George London
6. Good Men Let Us Pass - George London
7. Behold The Singing Children - George London
8. Away, Away! - George London
9. Give Them Your Blessing - George London
10. Why Did I Let Them Leave? - George London
11. I Shall Kiss Our Lord's Tomb - George London
12. I Blessed Them To Their Doom - George London
13. Do Not Fret, My Brother - George London
14. Sleep, Sleep In Peace - George London
15. Interlude - George London
16. Song Of The Wood-Dove - George Londo

Содержание индексной карты (.CUE)Содержание индексной карты (.CUE) CD 1

TITLE "Requiem CD 1"PERFORMER "Erich Leinsdorf"REM GENRE "Classical"REM DATE "2001"REM DISCID F80EA310FILE "Requiem CD 1.flac" WAVE TRACK 01 AUDIO TITLE "Requiem & Kyrie" SONGWRITER "Giuseppe Verdi" INDEX 01 00:00:00 TRACK 02 AUDIO TITLE "Dies irae" SONGWRITER "Giuseppe Verdi" INDEX 01 08:55:35 TRACK 03 AUDIO TITLE "Tuba mirum" SONGWRITER "Giuseppe Verdi" INDEX 01 11:10:07 TRACK 04 AUDIO TITLE "Mors stupebit" SONGWRITER "Giuseppe Verdi" INDEX 01 13:07:02 TRACK 05 AUDIO TITLE "scriptus" SONGWRITER "Giuseppe Verdi" INDEX 01 14:23:00 TRACK 06 AUDIO TITLE "Quid sum miser" SONGWRITER "Giuseppe Verdi" INDEX 01 19:12:17 TRACK 07 AUDIO TITLE "Rex tremendae" SONGWRITER "Giuseppe Verdi" INDEX 01 22:50:65 TRACK 08 AUDIO TITLE "Recordare" SONGWRITER "Giuseppe Verdi" INDEX 01 26:27:67 TRACK 09 AUDIO TITLE "Ingemisco" SONGWRITER "Giuseppe Verdi" INDEX 01 30:32:67 TRACK 10 AUDIO TITLE "Confutatis" SONGWRITER "Giuseppe Verdi" INDEX 01 34:23:50 TRACK 11 AUDIO TITLE "Dies irae" SONGWRITER "Giuseppe Verdi" INDEX 01 38:10:35 TRACK 12 AUDIO TITLE "Lacrymosa" SONGWRITER "Giuseppe Verdi" INDEX 01 39:36:07 TRACK 13 AUDIO TITLE "Domine Jesu Christe" SONGWRITER "Giuseppe Verdi" INDEX 01 45:08:20 TRACK 14 AUDIO TITLE "Hostias" SONGWRITER "Giuseppe Verdi" INDEX 01 49:34:02 TRACK 15 AUDIO TITLE "Sanctus" SONGWRITER "Giuseppe Verdi" INDEX 01 55:06:60 TRACK 16 AUDIO TITLE "Agnus Dei" SONGWRITER "Giuseppe Verdi" INDEX 01 57:48:67

Содержание индексной карты (.CUE) CD 2

TITLE "Requiem CD 2"PERFORMER "Erich Leinsdorf"REM GENRE "Classical"REM DATE "2001"REM DISCID DB0FF810REM COMPILATION TRUEFILE "Requiem CD 2.flac" WAVE TRACK 01 AUDIO TITLE "Messa da Requiem: Lux aeterna" SONGWRITER "Giuseppe Verdi" INDEX 01 00:00:00 TRACK 02 AUDIO TITLE "Messa da Requiem: Libera me, Domine" SONGWRITER "Giuseppe Verdi" INDEX 01 06:03:25 TRACK 03 AUDIO TITLE "Messa da Requiem: Dies irae" SONGWRITER "Giuseppe Verdi" INDEX 01 08:21:67 TRACK 04 AUDIO TITLE "Messa da Requiem: Libera me, Domine" SONGWRITER "Giuseppe Verdi" INDEX 01 13:10:15 TRACK 05 AUDIO TITLE "The Death of the Bishop of Brindisi: I. And now the night begins" SONGWRITER "Giuseppe Verdi" INDEX 01 18:55:47 TRACK 06 AUDIO TITLE "The Death of the Bishop of Brindisi: II. Good men let us pass" SONGWRITER "Giuseppe Verdi" INDEX 01 25:39:42 TRACK 07 AUDIO TITLE "The Death of the Bishop of Brindisi: III. Behold the singing children" SONGWRITER "Giuseppe Verdi" INDEX 01 28:47:40 TRACK 08 AUDIO TITLE "The Death of the Bishop of Brindisi: IV. Away, away!" SONGWRITER "Giuseppe Verdi" INDEX 01 30:59:60 TRACK 09 AUDIO TITLE "The Death of the Bishop of Brindisi: V. Give them your blessing!" SONGWRITER "Giuseppe Verdi" INDEX 01 31:59:70 TRACK 10 AUDIO TITLE "The Death of the Bishop of Brindisi: VI. Why did I let them leave?" SONGWRITER "Giuseppe Verdi" INDEX 01 33:01:52 TRACK 11 AUDIO TITLE "The Death of the Bishop of Brindisi: VII. I shall kiss Our Lord's tomb" SONGWRITER "Giuseppe Verdi" INDEX 01 35:05:42 TRACK 12 AUDIO TITLE "The Death of the Bishop of Brindisi: VIII. I blessed them to their doom" SONGWRITER "Giuseppe Verdi" INDEX 01 39:25:65 TRACK 13 AUDIO TITLE "The Death of the Bishop of Brindisi: XI. Do not fret, my brother" SONGWRITER "Giuseppe Verdi" INDEX 01 43:33:72 TRACK 14 AUDIO TITLE "The Death of the Bishop of Brindisi: X. Sleep, sleep in peace" SONGWRITER "Giuseppe Verdi" INDEX 01 47:03:42 TRACK 15 AUDIO TITLE "Gurre-Lieder: Interlude" SONGWRITER "Giuseppe Verdi" INDEX 01 50:05:00 TRACK 16 AUDIO TITLE "Gurre-Lieder: Song of the Wood-Dove" SONGWRITER "Giuseppe Verdi" INDEX 01 57:41:50
[teatrix.ru].t7831.torrent 
Торрент: Зарегистрирован [ 2015-10-14 02:42 ] · D4D3B9D3D930B7EFC156B13BB9D5AF01E96F4C15

Скачать .torrent

Скачать

12 KB

Статус: проверено
Скачан: 1 раз
Размер: 585 MB
terms.php



Быстрый ответ

Имя:

      
Для отправки сообщений необходимо включить JavaScript
Показать сообщения:    

Текущее время: 06-Дек 13:15

Часовой пояс: UTC + 3


Вы можете начинать темы
Вы можете отвечать на сообщения
Вы не можете редактировать свои сообщения
Вы не можете удалять свои сообщения
Вы не можете голосовать в опросах
Вы не можете прикреплять файлы к сообщениям
Вы можете скачивать файлы