(Classical) Thomas Tallis · The Tallis Christmas Mass (The Tallis Scholars, Peter Philips) · 1998, FLAC (tracks+.cue) lossless


Статистика раздачи [Обновить пиров]
Размер:  394 MB   |    Зарегистрирован:  1 год 1 месяц   |    Скачан:  0 раз

Полного источника не было: Никогда

 
   
 
 
 

[Цитировать]

Thomas Tallis
The Tallis Christmas Mass

Жанр: classical
Страна-производитель диска: EC
Год издания диска: 1998
Издатель: Gimell
Номер по каталогу: 454 934-2
Дата записи: 1998 (recorded in the Church of St Peter & Paul, Salle, Norfolk UK)
Аудиокодек: FLAC
Тип рипа: tracks+.cue
Битрейт аудио: lossless
Продолжительность: 00:56:22
Источник: скачано с what.cd
Буклет в содержимом раздачи есть (внимание: весит 171 Мбайт)
Исполнители:
The Tallis Scholars
directed by Peter Philips
Треклист:
Missa Puer natus est nobis
01. Gloria (9:09)
02. Sanctus & Benedictus (7:19)
03. Agnus Dei (7:29)
04. Audivi vocem (4:08)
05. Magnificat (4vv) (11:56)
06. Ave Dei patris filia (16:19)

Лог создания рипа

Exact Audio Copy V1.0 beta 3 from 29. August 2011
EAC extraction logfile from 30. July 2013, 6:47
The Tallis Scholars; Peter Philips / The Tallis Christmas Mass
Used drive : TSSTcorpCDDVDW SH-222BB Adapter: 0 ID: 1
Read mode : SecureUtilize accurate stream : YesDefeat audio cache : YesMake use of C2 pointers : No
Read offset correction : 6Overread into Lead-In and Lead-Out : NoFill up missing offset samples with silence : YesDelete leading and trailing silent blocks : NoNull samples used in CRC calculations : YesUsed interface : Native Win32 interface for Win NT & 2000Gap handling : Appended to previous track
Used output format : User Defined EncoderSelected bitrate : 1024 kBit/sQuality : HighAdd ID3 tag : NoCommand line compressor : C:\Program Files (x86)\Exact Audio Copy\Flac\flac.exeAdditional command line options : -8 -V -T "ARTIST=%artist%" -T "TITLE=%title%" -T "ALBUM=%albumtitle%" -T "DATE=%year%" -T "TRACKNUMBER=%tracknr%" -T "GENRE=%genre%" -T "PERFORMER=%albuminterpret%" -T "COMPOSER=%composer%" %haslyrics%--tag-from-file=LYRICS="%lyricsfile%"%haslyrics% -T "ALBUMARTIST=%albumartist%" -T "DISCNUMBER=%cdnumber%" -T "TOTALDISCS=%totalcds%" -T "TOTALTRACKS=%numtracks%" -T "COMMENT=%comment%" %source% -o %dest%
TOC of the extracted CD
Track | Start | Length | Start sector | End sector --------------------------------------------------------- 1 | 0:00.00 | 9:09.00 | 0 | 41174 2 | 9:09.00 | 7:19.32 | 41175 | 74131 3 | 16:28.32 | 7:29.28 | 74132 | 107834 4 | 23:57.60 | 4:08.32 | 107835 | 126466 5 | 28:06.17 | 11:56.15 | 126467 | 180181 6 | 40:02.32 | 16:19.30 | 180182 | 253636
Track 1
Filename Z:\EAC\FLAC\01 Missa Puer natus est nobis- Gloria.wav
Pre-gap length 0:00:02.00
Peak level 71.1 % Extraction speed 2.0 X Track quality 100.0 % Test CRC 4A35A895 Copy CRC 4A35A895 Accurately ripped (confidence 2) [DD93611B] (AR v2) Copy OK
Track 2
Filename Z:\EAC\FLAC\02 Missa Puer natus est nobis- Sanctus & Benedictus.wav
Peak level 76.3 % Extraction speed 2.3 X Track quality 100.0 % Test CRC 95578601 Copy CRC 95578601 Accurately ripped (confidence 2) [D642C6B4] (AR v2) Copy OK
Track 3
Filename Z:\EAC\FLAC\03 Missa Puer natus est nobis- Agnus Dei.wav
Peak level 65.0 % Extraction speed 2.6 X Track quality 100.0 % Test CRC F71EA8CA Copy CRC F71EA8CA Accurately ripped (confidence 2) [164DAC75] (AR v2) Copy OK
Track 4
Filename Z:\EAC\FLAC\04 Audivi vocem.wav
Peak level 34.4 % Extraction speed 2.6 X Track quality 100.0 % Test CRC 2B215B57 Copy CRC 2B215B57 Accurately ripped (confidence 2) [A2E35654] (AR v2) Copy OK
Track 5
Filename Z:\EAC\FLAC\05 Magnificat (4vv).wav
Peak level 72.0 % Extraction speed 3.2 X Track quality 100.0 % Test CRC 52FCEC57 Copy CRC 52FCEC57 Accurately ripped (confidence 2) [9A60ABB6] (AR v2) Copy OK
Track 6
Filename Z:\EAC\FLAC\06 Ave Dei patris filia.wav
Peak level 99.3 % Extraction speed 3.3 X Track quality 99.9 % Test CRC F06D9EDD Copy CRC F06D9EDD Accurately ripped (confidence 2) [AB4BEE2D] (AR v2) Copy OK
All tracks accurately ripped
No errors occurred
End of status report
==== Log checksum 4D9A21962211DB4EEF902AFCD585284D5DB714C472EC9E9047BC654F3542F571 ====

Содержание индексной карты (.CUE)

REM DATE 1998REM DISCID 510D3506REM COMMENT "ExactAudioCopy v1.0b3"CATALOG 0028945493428PERFORMER "The Tallis Scholars · Peter Philips"TITLE "The Tallis Christmas Mass"FILE "01. Missa Puer natus est nobis. Gloria.wav" WAVE TRACK 01 AUDIO TITLE "Missa Puer natus est nobis: Gloria" PERFORMER "The Tallis Scholars · Peter Philips" ISRC GBADM9800029 INDEX 01 00:00:00 INDEX 02 03:14:65FILE "02. Missa Puer natus est nobis. Sanctus & Benedictus.wav" WAVE TRACK 02 AUDIO TITLE "Missa Puer natus est nobis: Sanctus & Benedictus" PERFORMER "The Tallis Scholars · Peter Philips" ISRC GBADM9800030 INDEX 01 00:00:00 INDEX 02 04:16:10FILE "03. Missa Puer natus est nobis. Agnus Dei.wav" WAVE TRACK 03 AUDIO TITLE "Missa Puer natus est nobis: Agnus Dei" PERFORMER "The Tallis Scholars · Peter Philips" ISRC GBADM9800031 INDEX 01 00:00:00 INDEX 02 02:07:60 INDEX 03 04:18:28FILE "04. Audivi vocem.wav" WAVE TRACK 04 AUDIO TITLE "Audivi vocem" PERFORMER "The Tallis Scholars · Peter Philips" ISRC GBADM9800032 INDEX 01 00:00:00FILE "05. Magnificat (4vv).wav" WAVE TRACK 05 AUDIO TITLE "Magnificat (4vv)" PERFORMER "The Tallis Scholars · Peter Philips" ISRC GBADM9800033 INDEX 01 00:00:00 INDEX 02 02:03:03 INDEX 03 04:11:13 INDEX 04 05:57:65 INDEX 05 08:09:17 INDEX 06 10:01:25FILE "06. Ave Dei patris filia.wav" WAVE TRACK 06 AUDIO TITLE "Ave Dei patris filia" PERFORMER "The Tallis Scholars · Peter Philips" ISRC GBADM9800034 INDEX 01 00:00:00 INDEX 02 07:03:68
[teatrix.ru].t7832.torrent 
Торрент: Зарегистрирован [ 2015-10-14 02:42 ] · 03A5B48F04039DA2210DADA083DFC1A9706B3C12

Скачать .torrent

Скачать

17 KB

Статус: проверено
Скачан: 0 раз
Размер: 394 MB
terms.php



Быстрый ответ

Имя:

      
Для отправки сообщений необходимо включить JavaScript
Показать сообщения:    

Текущее время: 05-Дек 07:30

Часовой пояс: UTC + 3


Вы можете начинать темы
Вы можете отвечать на сообщения
Вы не можете редактировать свои сообщения
Вы не можете удалять свои сообщения
Вы не можете голосовать в опросах
Вы не можете прикреплять файлы к сообщениям
Вы можете скачивать файлы