(Classical) B. Britten · Sacred and Profane / E. Elgar · Part-Songs / R. V. Williams · 3 Shakespeare Songs / F. Delius · 2 Unaccompanied Part Songs / C. V. Stanford · The Blue Bird (RIAS-Kammerchor, Marcus Creed) · 2002, FLAC (tracks+.cue) lossless


Статистика раздачи [Обновить пиров]
Размер:  188 MB   |    Зарегистрирован:  1 год 1 месяц   |    Скачан:  0 раз

Полного источника не было: Никогда

 
   
 
 
 

[Цитировать]

Britten
Sacred and Profane

Жанр: classical
Страна-производитель диска: ФРГ
Год издания диска: 2002
Издатель: Harmonia Mundi
Номер по каталогу: HMC 901734
Дата записи: ?
Аудиокодек: FLAC
Тип рипа: tracks+.cue
Битрейт аудио: lossless
Продолжительность:
Источник: скачано с what.cd
Буклет в содержимом раздачи отсутствует
Исполнители:
RIAS-Kammerchor
Marcus Creed

Треклист

Benjamin Britten (1–8, 15)
Edward Elgar (9–11)
Ralph Vaughan Williams (12–14)
Frederick Delius (16–17)
Charles Villiers Stanford (18)
Sacred and Profane, Op. 91 (1974–1975)
01. St. Godric’s Hymn (1:41)
02. I mon waxe wod (0:41)
03. Lenten is come (2:19)
04. The long night (1:33)
05. Yif ic of luve can (2:42)
06. Carol (1:54)
07. Ye that pasen by (1:52)
08. A death (3:03)
Part-Songs
09. Go, song of mine, Op. 57 (1909) (5:24)
10. There is sweet music, Op. 53, No. 1 (1907) (4:35)
11. Love’s tempest, Op. 73, No. 1 (1914) (3:25)
Three Shakespeare Songs (1951)
12. Full Fathom Five (3:25)
13. The Cloud-Capp’d Towers (2:22)
14. Over Hill, Over Dale (1:04)
15. Hymn to St. Cecilia, Op. 27 (1942) (11:24)
Two Unaccompanied Part Songs (1917)
16. I. Slow but not dragging (2:23)
17. II. Gaily but not quick (1:58)
18. The Blue Bird, Op. 119, No. 3 (1910) (3:51)

Лог создания рипа

Exact Audio Copy V1.0 beta 3 from 29. August 2011
EAC extraction logfile from 5. April 2012, 8:00
RIAS Kammerchor - Marcus Creed / BRITTEN Sacred and Profane
Used drive : Optiarc DVD RW AD-7693H Adapter: 1 ID: 0
Read mode : SecureUtilize accurate stream : YesDefeat audio cache : YesMake use of C2 pointers : No
Read offset correction : 48Overread into Lead-In and Lead-Out : NoFill up missing offset samples with silence : YesDelete leading and trailing silent blocks : NoNull samples used in CRC calculations : YesUsed interface : Native Win32 interface for Win NT & 2000Gap handling : Appended to previous track
Used output format : User Defined EncoderSelected bitrate : 1024 kBit/sQuality : HighAdd ID3 tag : NoCommand line compressor : C:\Program Files (x86)\Exact Audio Copy\FLAC\FLAC.EXEAdditional command line options : -8 -V -T "ARTIST=%artist%" -T "TITLE=%title%" -T "ALBUM=%albumtitle%" -T "DATE=%year%" -T "TRACKNUMBER=%tracknr%" -T "GENRE=%genre%" -T "PERFORMER=%albuminterpret%" -T "COMPOSER=%composer%" %haslyrics%--tag-from-file=LYRICS="%lyricsfile%"%haslyrics% -T "ALBUMARTIST=%albumartist%" -T "DISCNUMBER=%cdnumber%" -T "TOTALDISCS=%totalcds%" -T "TOTALTRACKS=%numtracks%" -T "COMMENT=%comment%" %source% -o %dest%
TOC of the extracted CD
Track | Start | Length | Start sector | End sector --------------------------------------------------------- 1 | 0:00.00 | 1:41.00 | 0 | 7574 2 | 1:41.00 | 0:40.52 | 7575 | 10626 3 | 2:21.52 | 2:19.30 | 10627 | 21081 4 | 4:41.07 | 1:32.45 | 21082 | 28026 5 | 6:13.52 | 2:42.25 | 28027 | 40201 6 | 8:56.02 | 1:54.05 | 40202 | 48756 7 | 10:50.07 | 1:52.13 | 48757 | 57169 8 | 12:42.20 | 3:03.22 | 57170 | 70916 9 | 15:45.42 | 5:23.53 | 70917 | 95194 10 | 21:09.20 | 4:34.40 | 95195 | 115784 11 | 25:43.60 | 3:25.17 | 115785 | 131176 12 | 29:09.02 | 3:24.63 | 131177 | 146539 13 | 32:33.65 | 2:22.37 | 146540 | 157226 14 | 34:56.27 | 1:04.10 | 157227 | 162036 15 | 36:00.37 | 11:24.35 | 162037 | 213371 16 | 47:24.72 | 2:23.35 | 213372 | 224131 17 | 49:48.32 | 1:57.70 | 224132 | 232976 18 | 51:46.27 | 3:50.68 | 232977 | 250294
Track 1
Filename M:\Musik\Interprets.classic\Benjamin Britten\2002 - Sacred and Profane by RIAS-Kammerchor\01 - Sacred and Profane (1974-1975) - I. St.Godric's Hymn.wav
Pre-gap length 0:00:02.00
Copy aborted
Track 2
Copy aborted
Track 3
Copy aborted
Track 4
Copy aborted
Track 5
Copy aborted
Track 6
Copy aborted
Track 7
Copy aborted
Track 8
Copy aborted
Track 9
Copy aborted
Track 10
Copy aborted
Track 11
Copy aborted
Track 12
Copy aborted
Track 13
Copy aborted
Track 14
Copy aborted
Track 15
Copy aborted
Track 16
Copy aborted
Track 17
Copy aborted
Track 18
Copy aborted
No tracks could be verified as accurate
There were errors
End of status report
==== Log checksum 25F48E7B1B3B5FF9E52FDC8A7266F0AB2B8424396D18BE0FD977191FC16CE312 ====
------------------------------------------------------------
Exact Audio Copy V1.0 beta 3 from 29. August 2011
EAC extraction logfile from 5. April 2012, 9:16
RIAS Kammerchor - Marcus Creed / BRITTEN Sacred and Profane
Used drive : Optiarc DVD RW AD-7693H Adapter: 1 ID: 0
Read mode : SecureUtilize accurate stream : YesDefeat audio cache : YesMake use of C2 pointers : No
Read offset correction : 48Overread into Lead-In and Lead-Out : NoFill up missing offset samples with silence : YesDelete leading and trailing silent blocks : NoNull samples used in CRC calculations : YesUsed interface : Native Win32 interface for Win NT & 2000Gap handling : Appended to previous track
Used output format : User Defined EncoderSelected bitrate : 1024 kBit/sQuality : HighAdd ID3 tag : NoCommand line compressor : C:\Program Files (x86)\Exact Audio Copy\FLAC\FLAC.EXEAdditional command line options : -8 -V -T "ARTIST=%artist%" -T "TITLE=%title%" -T "ALBUM=%albumtitle%" -T "DATE=%year%" -T "TRACKNUMBER=%tracknr%" -T "GENRE=%genre%" -T "PERFORMER=%albuminterpret%" -T "COMPOSER=%composer%" %haslyrics%--tag-from-file=LYRICS="%lyricsfile%"%haslyrics% -T "ALBUMARTIST=%albumartist%" -T "DISCNUMBER=%cdnumber%" -T "TOTALDISCS=%totalcds%" -T "TOTALTRACKS=%numtracks%" -T "COMMENT=%comment%" %source% -o %dest%
TOC of the extracted CD
Track | Start | Length | Start sector | End sector --------------------------------------------------------- 1 | 0:00.00 | 1:41.00 | 0 | 7574 2 | 1:41.00 | 0:40.52 | 7575 | 10626 3 | 2:21.52 | 2:19.30 | 10627 | 21081 4 | 4:41.07 | 1:32.45 | 21082 | 28026 5 | 6:13.52 | 2:42.25 | 28027 | 40201 6 | 8:56.02 | 1:54.05 | 40202 | 48756 7 | 10:50.07 | 1:52.13 | 48757 | 57169 8 | 12:42.20 | 3:03.22 | 57170 | 70916 9 | 15:45.42 | 5:23.53 | 70917 | 95194 10 | 21:09.20 | 4:34.40 | 95195 | 115784 11 | 25:43.60 | 3:25.17 | 115785 | 131176 12 | 29:09.02 | 3:24.63 | 131177 | 146539 13 | 32:33.65 | 2:22.37 | 146540 | 157226 14 | 34:56.27 | 1:04.10 | 157227 | 162036 15 | 36:00.37 | 11:24.35 | 162037 | 213371 16 | 47:24.72 | 2:23.35 | 213372 | 224131 17 | 49:48.32 | 1:57.70 | 224132 | 232976 18 | 51:46.27 | 3:50.68 | 232977 | 250294
Track 1
Filename M:\Musik\Interprets.classic\Benjamin Britten\2002 - Sacred and Profane by RIAS-Kammerchor\01 - Sacred and Profane (1974-1975) - I. St.Godric's Hymn.wav
Pre-gap length 0:00:02.00
Peak level 84.8 % Extraction speed 2.1 X Track quality 100.0 % Test CRC 454A9C14 Copy CRC 454A9C14 Track not present in AccurateRip database Copy OK
Track 2
Filename M:\Musik\Interprets.classic\Benjamin Britten\2002 - Sacred and Profane by RIAS-Kammerchor\02 - Sacred and Profane (1974-1975) - II. I mon waxe wod.wav
Peak level 58.2 % Extraction speed 1.6 X Track quality 100.0 % Test CRC 71D2D6F0 Copy CRC 71D2D6F0 Track not present in AccurateRip database Copy OK
Track 3
Filename M:\Musik\Interprets.classic\Benjamin Britten\2002 - Sacred and Profane by RIAS-Kammerchor\03 - Sacred and Profane (1974-1975) - III. Lenten is come.wav
Peak level 75.9 % Extraction speed 2.4 X Track quality 100.0 % Test CRC 2A0EBB21 Copy CRC 2A0EBB21 Track not present in AccurateRip database Copy OK
Track 4
Filename M:\Musik\Interprets.classic\Benjamin Britten\2002 - Sacred and Profane by RIAS-Kammerchor\04 - Sacred and Profane (1974-1975) - IV. The long night.wav
Peak level 93.6 % Extraction speed 1.7 X Track quality 99.8 % Test CRC 562BA865 Copy CRC 562BA865 Track not present in AccurateRip database Copy OK
Track 5
Filename M:\Musik\Interprets.classic\Benjamin Britten\2002 - Sacred and Profane by RIAS-Kammerchor\05 - Sacred and Profane (1974-1975) - V. Yif ic of luve can.wav
Peak level 55.6 % Extraction speed 2.2 X Track quality 99.9 % Test CRC 4523C4F1 Copy CRC 4523C4F1 Track not present in AccurateRip database Copy OK
Track 6
Filename M:\Musik\Interprets.classic\Benjamin Britten\2002 - Sacred and Profane by RIAS-Kammerchor\06 - Sacred and Profane (1974-1975) - VI. Carol.wav
Peak level 81.0 % Extraction speed 2.5 X Track quality 100.0 % Test CRC FD963C8C Copy CRC FD963C8C Track not present in AccurateRip database Copy OK
Track 7
Filename M:\Musik\Interprets.classic\Benjamin Britten\2002 - Sacred and Profane by RIAS-Kammerchor\07 - Sacred and Profane (1974-1975) - VII. Ye that pasen by.wav
Peak level 98.5 % Extraction speed 2.8 X Track quality 100.0 % Test CRC 45F88AB7 Copy CRC 45F88AB7 Track not present in AccurateRip database Copy OK
Track 8
Filename M:\Musik\Interprets.classic\Benjamin Britten\2002 - Sacred and Profane by RIAS-Kammerchor\08 - Sacred and Profane (1974-1975) - VIII. A death.wav
Peak level 85.3 % Extraction speed 3.1 X Track quality 100.0 % Test CRC 6556E093 Copy CRC 6556E093 Track not present in AccurateRip database Copy OK
Track 9
Filename M:\Musik\Interprets.classic\Benjamin Britten\2002 - Sacred and Profane by RIAS-Kammerchor\09 - Go, song of mine, Op.57 (1909).wav
Peak level 90.8 % Extraction speed 3.1 X Track quality 99.9 % Test CRC 857A7727 Copy CRC 857A7727 Track not present in AccurateRip database Copy OK
Track 10
Filename M:\Musik\Interprets.classic\Benjamin Britten\2002 - Sacred and Profane by RIAS-Kammerchor\10 - There is sweet music, Op.53,1 (1907).wav
Peak level 42.7 % Extraction speed 3.2 X Track quality 99.9 % Test CRC 0F260D4F Copy CRC 0F260D4F Track not present in AccurateRip database Copy OK
Track 11
Filename M:\Musik\Interprets.classic\Benjamin Britten\2002 - Sacred and Profane by RIAS-Kammerchor\11 - Love's Tempest, Op.73,1 (1914).wav
Peak level 86.4 % Extraction speed 3.8 X Track quality 100.0 % Test CRC BE70E259 Copy CRC BE70E259 Track not present in AccurateRip database Copy OK
Track 12
Filename M:\Musik\Interprets.classic\Benjamin Britten\2002 - Sacred and Profane by RIAS-Kammerchor\12 - Three Shakespeare Songs (1951) - I. Full Fathom Five.wav
Peak level 28.1 % Extraction speed 3.2 X Track quality 99.9 % Test CRC 1F88EAB8 Copy CRC 1F88EAB8 Track not present in AccurateRip database Copy OK
Track 13
Filename M:\Musik\Interprets.classic\Benjamin Britten\2002 - Sacred and Profane by RIAS-Kammerchor\13 - Three Shakespeare Songs (1951) - II. The Cloud-Capp'd Towers.wav
Peak level 54.0 % Extraction speed 3.3 X Track quality 100.0 % Test CRC C0DB2211 Copy CRC C0DB2211 Track not present in AccurateRip database Copy OK
Track 14
Filename M:\Musik\Interprets.classic\Benjamin Britten\2002 - Sacred and Profane by RIAS-Kammerchor\14 - Three Shakespeare Songs (1951) - III. Over Hill, Over Dale.wav
Peak level 42.4 % Extraction speed 3.2 X Track quality 100.0 % Test CRC EE248853 Copy CRC EE248853 Track not present in AccurateRip database Copy OK
Track 15
Filename M:\Musik\Interprets.classic\Benjamin Britten\2002 - Sacred and Profane by RIAS-Kammerchor\15 - Hymn to St. Cecilia, Op.27 (1942).wav
Peak level 97.6 % Extraction speed 4.6 X Track quality 100.0 % Test CRC 82C07ABF Copy CRC 82C07ABF Track not present in AccurateRip database Copy OK
Track 16
Filename M:\Musik\Interprets.classic\Benjamin Britten\2002 - Sacred and Profane by RIAS-Kammerchor\16 - Two Unaccompanied Part Songs (1917) - I. Slow but not dragging.wav
Peak level 38.5 % Extraction speed 4.2 X Track quality 100.0 % Test CRC 4BF5C171 Copy CRC 4BF5C171 Track not present in AccurateRip database Copy OK
Track 17
Filename M:\Musik\Interprets.classic\Benjamin Britten\2002 - Sacred and Profane by RIAS-Kammerchor\17 - Two Unaccompanied Part Songs (1917) - II. Gaily but not quick.wav
Peak level 56.5 % Extraction speed 4.1 X Track quality 100.0 % Test CRC D1ADEAC7 Copy CRC D1ADEAC7 Track not present in AccurateRip database Copy OK
Track 18
Filename M:\Musik\Interprets.classic\Benjamin Britten\2002 - Sacred and Profane by RIAS-Kammerchor\18 - The Blue Bird, Op.119,3 (1910).wav
Peak level 32.5 % Extraction speed 4.6 X Track quality 100.0 % Test CRC 25D87719 Copy CRC 25D87719 Track not present in AccurateRip database Copy OK
None of the tracks are present in the AccurateRip database
No errors occurred
End of status report
---- CUETools DB Plugin V2.1.3
[CTDB TOCID: Hdh0yPG7AHq9ns9.d8JiRiGaHp8-] disk not present in database, Submit result: Hdh0yPG7AHq9ns9.d8JiRiGaHp8- has been uploaded
==== Log checksum 652C712C043B5FC25E0230B9F02F75F6E78F519DEAA13AD899B21D194CB5BB87 ====

Содержание индексной карты (.CUE)

REM DATE 2002REM DISCID FA0D0912REM COMMENT "ExactAudioCopy v1.0b3"PERFORMER "RIAS-Kammerchor · Marcus Creed"TITLE "Sacred and Profane"FILE "01. Sacred and Profane, Op. 91 (1974–1975) · St. Godric’s Hymn.wav" WAVE TRACK 01 AUDIO TITLE "St. Godric’s Hymn" PERFORMER "RIAS-Kammerchor · Marcus Creed" INDEX 01 00:00:00FILE "02. Sacred and Profane, Op. 91 (1974–1975) · I mon waxe wod.wav" WAVE TRACK 02 AUDIO TITLE "I mon waxe wod" PERFORMER "RIAS-Kammerchor · Marcus Creed" INDEX 01 00:00:00FILE "03. Sacred and Profane, Op. 91 (1974–1975) · Lenten is come.wav" WAVE TRACK 03 AUDIO TITLE "Lenten is come" PERFORMER "RIAS-Kammerchor · Marcus Creed" INDEX 01 00:00:00FILE "04. Sacred and Profane, Op. 91 (1974–1975) · The long night.wav" WAVE TRACK 04 AUDIO TITLE "The long night" PERFORMER "RIAS-Kammerchor · Marcus Creed" INDEX 01 00:00:00FILE "05. Sacred and Profane, Op. 91 (1974–1975) · Yif ic of luve can.wav" WAVE TRACK 05 AUDIO TITLE "Yif ic of luve can" PERFORMER "RIAS-Kammerchor · Marcus Creed" INDEX 01 00:00:00FILE "06. Sacred and Profane, Op. 91 (1974–1975) · Carol.wav" WAVE TRACK 06 AUDIO TITLE "Carol" PERFORMER "RIAS-Kammerchor · Marcus Creed" INDEX 01 00:00:00FILE "07. Sacred and Profane, Op. 91 (1974–1975) · Ye that pasen by.wav" WAVE TRACK 07 AUDIO TITLE "Ye that pasen by" PERFORMER "RIAS-Kammerchor · Marcus Creed" INDEX 01 00:00:00FILE "08. Sacred and Profane, Op. 91 (1974–1975) · A death.wav" WAVE TRACK 08 AUDIO TITLE "A death" PERFORMER "RIAS-Kammerchor · Marcus Creed" INDEX 01 00:00:00FILE "09. Go, song of mine, Op. 57 (1909).wav" WAVE TRACK 09 AUDIO TITLE "Go, song of mine, Op. 57 (1909)" PERFORMER "RIAS-Kammerchor · Marcus Creed" INDEX 01 00:00:00FILE "10. There is sweet music, Op. 53, No. 1 (1907).wav" WAVE TRACK 10 AUDIO TITLE "There is sweet music, Op. 53, No. 1 (1907)" PERFORMER "RIAS-Kammerchor · Marcus Creed" INDEX 01 00:00:00FILE "11. Love’s tempest, Op. 73, No. 1 (1914).wav" WAVE TRACK 11 AUDIO TITLE "Love’s tempest, Op. 73, No. 1 (1914)" PERFORMER "RIAS-Kammerchor · Marcus Creed" INDEX 01 00:00:00FILE "12. Three Shakespeare Songs (1951) · Full Fathom Five.wav" WAVE TRACK 12 AUDIO TITLE "Full Fathom Five" PERFORMER "RIAS-Kammerchor · Marcus Creed" INDEX 01 00:00:00FILE "13. Three Shakespeare Songs (1951) · The Cloud-Capp’d Towers.wav" WAVE TRACK 13 AUDIO TITLE "The Cloud-Capp’d Towers" PERFORMER "RIAS-Kammerchor · Marcus Creed" INDEX 01 00:00:00FILE "14. Three Shakespeare Songs (1951) · Over Hill, Over Dale.wav" WAVE TRACK 14 AUDIO TITLE "Over Hill, Over Dale" PERFORMER "RIAS-Kammerchor · Marcus Creed" INDEX 01 00:00:00FILE "15. Hymn to St. Cecilia, Op. 27 (1942).wav" WAVE TRACK 15 AUDIO TITLE "Hymn to St. Cecilia, Op. 27 (1942)" PERFORMER "RIAS-Kammerchor · Marcus Creed" INDEX 01 00:00:00FILE "16. Two Unaccompanied Part Songs (1917) · I. Slow but not dragging.wav" WAVE TRACK 16 AUDIO TITLE "I. Slow but not dragging" PERFORMER "RIAS-Kammerchor · Marcus Creed" INDEX 01 00:00:00FILE "17. Two Unaccompanied Part Songs (1917) · II. Gaily but not quick.wav" WAVE TRACK 17 AUDIO TITLE "II. Gaily but not quick" PERFORMER "RIAS-Kammerchor · Marcus Creed" INDEX 01 00:00:00FILE "18. The Blue Bird, Op. 119, No. 3 (1910).wav" WAVE TRACK 18 AUDIO TITLE "The Blue Bird, Op. 119, No. 3 (1910)" PERFORMER "RIAS-Kammerchor · Marcus Creed" INDEX 01 00:00:00
[teatrix.ru].t7833.torrent 
Торрент: Зарегистрирован [ 2015-10-14 02:42 ] · 423AD2C1F8BB9422285878604A50E23E09438978

Скачать .torrent

Скачать

17 KB

Статус: проверено
Скачан: 0 раз
Размер: 188 MB
terms.php



Быстрый ответ

Имя:

      
Для отправки сообщений необходимо включить JavaScript
Показать сообщения:    

Текущее время: 09-Дек 18:34

Часовой пояс: UTC + 3


Вы можете начинать темы
Вы можете отвечать на сообщения
Вы не можете редактировать свои сообщения
Вы не можете удалять свои сообщения
Вы не можете голосовать в опросах
Вы не можете прикреплять файлы к сообщениям
Вы можете скачивать файлы