(Classical) Thomas Tallis - Salve intemerata & other sacred music - The Cardinall\'s Musick, Andrew Carwood - 2013, FLAC (image+.cue) lossless


Статистика раздачи [Обновить пиров]
Размер:  263 MB   |    Зарегистрирован:  1 год 1 месяц   |    Скачан:  0 раз

Полного источника не было: Никогда

 
   
 
 
 

[Цитировать]

Thomas Tallis - Salve intemerata & other sacred music - The Cardinall's Musick, Andrew Carwood
Жанр: Classical
Страна-производитель диска: UK
Год издания диска: 2013
Издатель (лейбл): Hyperion
Номер по каталогу: CDA67994
Дата записи: 2012
Аудиокодек: FLAC
Тип рипа: image+.cue
Битрейт аудио: lossless
Продолжительность: 68:49
Источник: собственный рип
Наличие сканов в содержимом раздачи: да
Треклист:
Thomas Tallis (c1505-1585)
[1] O Lord, give thy Holy Spirit
[2]-[6] Missa Salve intemerata
[7] 9 Psalm Tunes - No.1. Man blest no doubt
[8] I call & cry to thee
[9] If ye love me
[10] Domine, quis habitabit?
[11] A new commandment
[12] Alleluia, Ora pro nobis
[13] 9 Psalm Tunes - No.2. Let God arise
[14] Salve intemerata virgo
Исполнители:
The Cardinall's Musick
Andrew Carwood

Лог создания рипа

Exact Audio Copy V1.0 beta 3 from 29. August 2011
EAC extraction logfile from 14. February 2015, 1:19
The Cardinall's Musick, Andrew Carwood / Tallis - Salve intemerata & other sacred music
Used drive : HL-DT-STDVDRAM GU70N Adapter: 0 ID: 0
Read mode : SecureUtilize accurate stream : YesDefeat audio cache : YesMake use of C2 pointers : No
Read offset correction : 48Overread into Lead-In and Lead-Out : NoFill up missing offset samples with silence : YesDelete leading and trailing silent blocks : NoNull samples used in CRC calculations : YesUsed interface : Native Win32 interface for Win NT & 2000
Used output format : User Defined EncoderSelected bitrate : 128 kBit/sQuality : HighAdd ID3 tag : NoCommand line compressor : C:\Program Files (x86)\Exact Audio Copy\Flac\flac.exeAdditional command line options : -V -8 -T "Date=%year%" -T "Genre=%genre%" %source%
TOC of the extracted CD
Track | Start | Length | Start sector | End sector --------------------------------------------------------- 1 | 0:00.00 | 2:58.33 | 0 | 13382 2 | 2:58.33 | 5:05.30 | 13383 | 36287 3 | 8:03.63 | 6:02.11 | 36288 | 63448 4 | 14:05.74 | 2:52.23 | 63449 | 76371 5 | 16:58.22 | 2:34.35 | 76372 | 87956 6 | 19:32.57 | 4:30.63 | 87957 | 108269 7 | 24:03.45 | 3:41.54 | 108270 | 124898 8 | 27:45.24 | 3:42.11 | 124899 | 141559 9 | 31:27.35 | 2:24.71 | 141560 | 152430 10 | 33:52.31 | 8:15.65 | 152431 | 189620 11 | 42:08.21 | 2:58.51 | 189621 | 203021 12 | 45:06.72 | 4:00.55 | 203022 | 221076 13 | 49:07.52 | 3:35.06 | 221077 | 237207 14 | 52:42.58 | 16:06.33 | 237208 | 309690
Range status and errors
Selected range
Filename C:\temp\CDA67994 - Tallis - Salve intemerata & other sacred music\Tallis - Salve intemerata & other sacred music.wav
Peak level 98.5 % Extraction speed 5.2 X Range quality 100.0 % Test CRC 247689CA Copy CRC 247689CA Copy OK
No errors occurred
AccurateRip summary
Track 1 accurately ripped (confidence 1) [A0C7DEFD] (AR v2)Track 2 accurately ripped (confidence 1) [7D24B647] (AR v2)Track 3 accurately ripped (confidence 1) [EB82766A] (AR v2)Track 4 accurately ripped (confidence 1) [76635A9B] (AR v2)Track 5 accurately ripped (confidence 1) [738E56D3] (AR v2)Track 6 accurately ripped (confidence 1) [49AF3CAF] (AR v2)Track 7 accurately ripped (confidence 1) [55696047] (AR v2)Track 8 accurately ripped (confidence 1) [B216D619] (AR v2)Track 9 accurately ripped (confidence 1) [285BEA7B] (AR v2)Track 10 accurately ripped (confidence 1) [9AC25DD6] (AR v2)Track 11 accurately ripped (confidence 1) [78B066B2] (AR v2)Track 12 accurately ripped (confidence 1) [208F2AAD] (AR v2)Track 13 accurately ripped (confidence 1) [4A3C5B26] (AR v2)Track 14 accurately ripped (confidence 1) [790AA470] (AR v2)
All tracks accurately ripped
End of status report
==== Log checksum A2FFC338ABDE3923F02E2D4413D31832A47DD86BEAED03CA64C944E6541D44C8 ====
[teatrix.ru].t7835.torrent 
Торрент: Зарегистрирован [ 2015-10-14 02:42 ] · 4A4EDE0CF5C73F9063A522C4F153A5FAF2CC2AF9

Скачать .torrent

Скачать

22 KB

Статус: проверено
Скачан: 0 раз
Размер: 263 MB
terms.php



Быстрый ответ

Имя:

      
Для отправки сообщений необходимо включить JavaScript
Показать сообщения:    

Текущее время: 03-Дек 16:45

Часовой пояс: UTC + 3


Вы можете начинать темы
Вы можете отвечать на сообщения
Вы не можете редактировать свои сообщения
Вы не можете удалять свои сообщения
Вы не можете голосовать в опросах
Вы не можете прикреплять файлы к сообщениям
Вы можете скачивать файлы