(Classical) Henry Purcell - A Purcell Collection: Dido & Aeneas; King Arthur; The Prophetess; Come Ye Sons of Art; Ode to St. Cecilia; Come Ye Sons of Art; Work(s); The Tempest (Ayrton; Voces8, Les Inventions) - 2014, FLAC (tracks+.cue) lossless


Статистика раздачи [Обновить пиров]
Размер:  313 MB   |    Зарегистрирован:  1 год 1 месяц   |    Скачан:  1 раз

Полного источника не было: 1 месяц 15 дней

 
   
 
 
 

[Цитировать]

Voces8, Les Inventions - A Purcell Collection
Жанр: Classical
Год издания диска: 2014
Издатель (лейбл): Signum U.k.
Номер по каталогу: 3755
Дата записи: 2013
Аудиокодек: FLAC
Тип рипа: tracks+.cue
Битрейт аудио: lossless
Продолжительность: 01:10:16
Источник: собственный рип
Наличие сканов в содержимом раздачи: да
Исполнители:
Emily Dickens - Soprano (Vocal)
Andrea Haines - Soprano (Vocal)
Barnaby Smith - Choir Conductor, Counter Tenor (Vocal)
Sam Dressel - Tenor (Vocal)
Dingle Yabdell - Bass (Vocal)
Quentin Blumenrœder - Organ Maker
Les Inventions - Ensemble, Primary Artist
Voces8 - Primary Artist, Vocal Ensemble
Patrick Ayrton - Conductor, Liner Notes
Треклист:
01. Praise the Lord, O Jerusalem (07:25)
Dido & Aeneas
02. To the Hills and the Vales (02:30)
Now Does the Glorious Day Appear
03. By beauteous softness mix'd with majesty (03:34)
04. O God, thou art my God (03:51)
King Arthur
05. How Happy The Lovers (06:19)
06. 'Cold Song' (What Power Art Thou) (04:26)
The Prophetess
07. Behold, O mightiest of Gods (03:22)
08. My heart is inditing of a good matter (15:03)
Come Ye Sons of Art
09. Bid the Virtues (03:17)
Ode to St. Cecilia
10. Hail! Bright Cecilia (04:21)
Come Ye Sons of Art
11. Strike the Viol (03:55)
Work(s)
12. Second Dirge Anthem (Morley) \ Thou Knowest Lord (05:09)
King Arthur
13. Fairest Isle (04:40)
The Tempest
14. Full Fathom Five (02:24)

LOG EAC:

Exact Audio Copy V1.0 beta 2 from 29. April 2011
EAC extraction logfile from 28. July 2015, 16:24
Voces8 & Les Inventions / A Purcell Collection
Used drive : HL-DT-STDVDRWBD GBC-H20N Adapter: 0 ID: 1
Read mode : SecureUtilize accurate stream : YesDefeat audio cache : YesMake use of C2 pointers : No
Read offset correction : 667Overread into Lead-In and Lead-Out : NoFill up missing offset samples with silence : YesDelete leading and trailing silent blocks : NoNull samples used in CRC calculations : YesUsed interface : Native Win32 interface for Win NT & 2000Gap handling : Appended to previous track
Used output format : User Defined EncoderSelected bitrate : 1024 kBit/sQuality : HighAdd ID3 tag : NoCommand line compressor : C:\Program Files (x86)\Exact Audio Copy\Flac\flac.exeAdditional command line options : -8 -V -T "ARTIST=%artist%" -T "TITLE=%title%" -T "ALBUM=%albumtitle%" -T "DATE=%year%" -T "TRACKNUMBER=%tracknr%" -T "GENRE=%genre%" -T "PERFORMER=%albuminterpret%" -T "COMPOSER=%composer%" %haslyrics%--tag-from-file=LYRICS
TOC of the extracted CD
Track | Start | Length | Start sector | End sector --------------------------------------------------------- 1 | 0:00.00 | 7:25.20 | 0 | 33394 2 | 7:25.20 | 2:30.05 | 33395 | 44649 3 | 9:55.25 | 3:33.57 | 44650 | 60681 4 | 13:29.07 | 3:51.12 | 60682 | 78018 5 | 17:20.19 | 6:19.34 | 78019 | 106477 6 | 23:39.53 | 4:26.06 | 106478 | 126433 7 | 28:05.59 | 3:22.21 | 126434 | 141604 8 | 31:28.05 | 15:02.71 | 141605 | 209325 9 | 46:31.01 | 3:17.07 | 209326 | 224107 10 | 49:48.08 | 4:20.39 | 224108 | 243646 11 | 54:08.47 | 3:54.52 | 243647 | 261248 12 | 58:03.24 | 5:08.54 | 261249 | 284402 13 | 63:12.03 | 4:40.08 | 284403 | 305410 14 | 67:52.11 | 2:24.16 | 305411 | 316226
Track 1
Filename P:\Music\Voces8\Voces8 & Les Inventions - A Purcell Collection [2014] [FLAC]\01 - Praise the Lord, O Jerusalem.wav
Pre-gap length 0:00:02.00
Peak level 87.8 % Extraction speed 1.2 X Track quality 100.0 % Test CRC BE990318 Copy CRC BE990318 Accurately ripped (confidence 2) [5B0003A0] (AR v2) Copy OK
Track 2
Filename P:\Music\Voces8\Voces8 & Les Inventions - A Purcell Collection [2014] [FLAC]\02 - To the Hills and the Vales.wav
Peak level 99.0 % Extraction speed 0.9 X Track quality 99.9 % Test CRC 2296FFA9 Copy CRC 2296FFA9 Accurately ripped (confidence 2) [23FCFF27] (AR v2) Copy OK
Track 3
Filename P:\Music\Voces8\Voces8 & Les Inventions - A Purcell Collection [2014] [FLAC]\03 - By beauteous softness mix'd with majesty.wav
Peak level 41.4 % Extraction speed 1.0 X Track quality 99.9 % Test CRC 963FAF0A Copy CRC 963FAF0A Accurately ripped (confidence 2) [64BEFDA3] (AR v2) Copy OK
Track 4
Filename P:\Music\Voces8\Voces8 & Les Inventions - A Purcell Collection [2014] [FLAC]\04 - O God, thou art my God.wav
Peak level 69.8 % Extraction speed 1.3 X Track quality 100.0 % Test CRC 06DA7700 Copy CRC 06DA7700 Accurately ripped (confidence 2) [C63A7A96] (AR v2) Copy OK
Track 5
Filename P:\Music\Voces8\Voces8 & Les Inventions - A Purcell Collection [2014] [FLAC]\05 - How Happy The Lovers.wav
Peak level 97.7 % Extraction speed 1.3 X Track quality 99.9 % Test CRC BB8713FC Copy CRC BB8713FC Accurately ripped (confidence 2) [1E8E29C5] (AR v2) Copy OK
Track 6
Filename P:\Music\Voces8\Voces8 & Les Inventions - A Purcell Collection [2014] [FLAC]\06 - 'Cold Song' (What Power Art Thou).wav
Peak level 85.5 % Extraction speed 1.5 X Track quality 100.0 % Test CRC 992C05EB Copy CRC 992C05EB Accurately ripped (confidence 2) [E2DA7AB3] (AR v2) Copy OK
Track 7
Filename P:\Music\Voces8\Voces8 & Les Inventions - A Purcell Collection [2014] [FLAC]\07 - Behold, O mightiest of Gods.wav
Peak level 96.3 % Extraction speed 1.5 X Track quality 100.0 % Test CRC BD8F1715 Copy CRC BD8F1715 Accurately ripped (confidence 2) [DF57AA04] (AR v2) Copy OK
Track 8
Filename P:\Music\Voces8\Voces8 & Les Inventions - A Purcell Collection [2014] [FLAC]\08 - My heart is inditing of a good matter.wav
Peak level 98.7 % Extraction speed 1.8 X Track quality 100.0 % Test CRC BA978FD7 Copy CRC BA978FD7 Accurately ripped (confidence 2) [019556F4] (AR v2) Copy OK
Track 9
Filename P:\Music\Voces8\Voces8 & Les Inventions - A Purcell Collection [2014] [FLAC]\09 - Bid the Virtues.wav
Peak level 84.8 % Extraction speed 1.6 X Track quality 100.0 % Test CRC 6120154C Copy CRC 6120154C Accurately ripped (confidence 2) [0FB7115C] (AR v2) Copy OK
Track 10
Filename P:\Music\Voces8\Voces8 & Les Inventions - A Purcell Collection [2014] [FLAC]\10 - Hail! Bright Cecilia.wav
Peak level 87.3 % Extraction speed 1.7 X Track quality 100.0 % Test CRC 016FCC31 Copy CRC 016FCC31 Accurately ripped (confidence 2) [316C57EB] (AR v2) Copy OK
Track 11
Filename P:\Music\Voces8\Voces8 & Les Inventions - A Purcell Collection [2014] [FLAC]\11 - Strike the Viol.wav
Peak level 66.6 % Extraction speed 1.4 X Track quality 99.9 % Test CRC F42D9D4E Copy CRC F42D9D4E Accurately ripped (confidence 2) [AAB76C24] (AR v2) Copy OK
Track 12
Filename P:\Music\Voces8\Voces8 & Les Inventions - A Purcell Collection [2014] [FLAC]\12 - Second Dirge Anthem (Morley) - Thou Knowest Lord.wav
Peak level 87.3 % Extraction speed 1.6 X Track quality 99.9 % Test CRC 4648D783 Copy CRC 4648D783 Accurately ripped (confidence 2) [64915561] (AR v2) Copy OK
Track 13
Filename P:\Music\Voces8\Voces8 & Les Inventions - A Purcell Collection [2014] [FLAC]\13 - Fairest Isle.wav
Peak level 60.7 % Extraction speed 1.8 X Track quality 100.0 % Test CRC 8F9EBCAF Copy CRC 8F9EBCAF Accurately ripped (confidence 2) [8F34065D] (AR v2) Copy OK
Track 14
Filename P:\Music\Voces8\Voces8 & Les Inventions - A Purcell Collection [2014] [FLAC]\14 - Full Fathom Five.wav
Peak level 79.9 % Extraction speed 1.6 X Track quality 100.0 % Test CRC F2CD6151 Copy CRC F2CD6151 Accurately ripped (confidence 2) [9C978FA2] (AR v2) Copy OK
All tracks accurately ripped
No errors occurred
End of status report
==== Log checksum 24DF5DDBE756C3DD8807BADA6F823570B1BB3CBC134A4AC577D28B3051777072 ====

LOG (.CUE):

REM GENRE ClassicalREM DATE 2014REM DISCID D410780EREM COMMENT "ExactAudioCopy v1.0b2"CATALOG 0635212037522PERFORMER "Voces8 & Les Inventions"TITLE " A Purcell Collection"FILE "01 - Praise the Lord, O Jerusalem.wav" WAVE TRACK 01 AUDIO TITLE "Praise the Lord, O Jerusalem" PERFORMER "Voces8 & Les Inventions" ISRC GBLLH1437501 INDEX 01 00:00:00FILE "02 - To the Hills and the Vales.wav" WAVE TRACK 02 AUDIO TITLE "To the Hills and the Vales" PERFORMER "Voces8 & Les Inventions" ISRC GBLLH1437502 INDEX 01 00:00:00FILE "03 - By beauteous softness mix'd with majesty.wav" WAVE TRACK 03 AUDIO TITLE "By beauteous softness mix'd with majesty" PERFORMER "Voces8 & Les Inventions" ISRC GBLLH1437503 INDEX 01 00:00:00FILE "04 - O God, thou art my God.wav" WAVE TRACK 04 AUDIO TITLE "O God, thou art my God" PERFORMER "Voces8 & Les Inventions" ISRC GBLLH1437504 INDEX 01 00:00:00FILE "05 - How Happy The Lovers.wav" WAVE TRACK 05 AUDIO TITLE "How Happy The Lovers" PERFORMER "Voces8 & Les Inventions" ISRC GBLLH1437505 INDEX 01 00:00:00FILE "06 - 'Cold Song' (What Power Art Thou).wav" WAVE TRACK 06 AUDIO TITLE "'Cold Song' (What Power Art Thou)" PERFORMER "Voces8 & Les Inventions" ISRC GBLLH1437506 INDEX 01 00:00:00FILE "07 - Behold, O mightiest of Gods.wav" WAVE TRACK 07 AUDIO TITLE "Behold, O mightiest of Gods" PERFORMER "Voces8 & Les Inventions" ISRC GBLLH1437507 INDEX 01 00:00:00FILE "08 - My heart is inditing of a good matter.wav" WAVE TRACK 08 AUDIO TITLE "My heart is inditing of a good matter" PERFORMER "Voces8 & Les Inventions" ISRC GBLLH1437508 INDEX 01 00:00:00FILE "09 - Bid the Virtues.wav" WAVE TRACK 09 AUDIO TITLE "Bid the Virtues" PERFORMER "Voces8 & Les Inventions" ISRC GBLLH1437509 INDEX 01 00:00:00FILE "10 - Hail! Bright Cecilia.wav" WAVE TRACK 10 AUDIO TITLE "Hail! Bright Cecilia" PERFORMER "Voces8 & Les Inventions" ISRC GBLLH1437510 INDEX 01 00:00:00FILE "11 - Strike the Viol.wav" WAVE TRACK 11 AUDIO TITLE "Strike the Viol" PERFORMER "Voces8 & Les Inventions" ISRC GBLLH1437511 INDEX 01 00:00:00FILE "12 - Second Dirge Anthem (Morley) - Thou Knowest Lord.wav" WAVE TRACK 12 AUDIO TITLE "Second Dirge Anthem (Morley) \ Thou Knowest Lord" PERFORMER "Voces8 & Les Inventions" ISRC GBLLH1437512 INDEX 01 00:00:00FILE "13 - Fairest Isle.wav" WAVE TRACK 13 AUDIO TITLE "Fairest Isle" PERFORMER "Voces8 & Les Inventions" ISRC GBLLH1437513 INDEX 01 00:00:00FILE "14 - Full Fathom Five.wav" WAVE TRACK 14 AUDIO TITLE "Full Fathom Five" PERFORMER "Voces8 & Les Inventions" ISRC GBLLH1437514 INDEX 01 00:00:00
-mp3
[teatrix.ru].t7836.torrent 
Торрент: Зарегистрирован [ 2015-10-14 02:42 ] · 2A61A6C5EF2FBD871A0BF1414803B320467ACDF3

Скачать .torrent

Скачать

14 KB

Статус: проверено
Скачан: 1 раз
Размер: 313 MB
terms.php



Быстрый ответ

Имя:

      
Для отправки сообщений необходимо включить JavaScript
Показать сообщения:    

Текущее время: 06-Дек 17:05

Часовой пояс: UTC + 3


Вы можете начинать темы
Вы можете отвечать на сообщения
Вы не можете редактировать свои сообщения
Вы не можете удалять свои сообщения
Вы не можете голосовать в опросах
Вы не можете прикреплять файлы к сообщениям
Вы можете скачивать файлы