(Classical) Нововейский – Две мессы / Nowowiejski ­– Masses pro pace & Stella maris (Anna Dramowicz, Maciej Ingielewicz; Janusz Wilinski; Janusz Przybylski) - 2009, FLAC (image+.cue) lossless


Статистика раздачи [Обновить пиров]
Размер:  315 MB   |    Зарегистрирован:  1 год 1 месяц   |    Скачан:  0 раз

Полного источника не было: Никогда

 
   
 
 
 

[Цитировать]

Нововейский – Две мессы / Nowowiejski ­– Masses pro pace & Stella maris (Anna Dramowicz, Maciej Ingielewicz; Janusz Wiliński; Janusz Przybylski)
Жанр: Classical
Страна-производитель диска: Польша
Год издания диска: 2009
Издатель (лейбл): DUX
Номер по каталогу: DUX 0683
Дата записи: 24 — 26 октября и 22 — 24 ноября 2008 г., Ольштын.
Аудиокодек: FLAC
Тип рипа: image+.cue
Битрейт аудио: lossless
Продолжительность: 01:07:40
Источник: odeonmusic
Наличие сканов в содержимом раздачи: да
Треклист:-Феликс Нововейский (1877 — 1946).-Месса за мир (Missa pro pace) d-moll для смешанного хора и органа, op. 49 № 3 (ок. 1933, опубл. 1935), версия Станко Премрла с оркестром (до 1938).
01. I. Kyrie. Grave dra[m]matico [06:34].
02. II. Gloria. Con spirito [05:21]
03. III. Credo. Maestoso, solenne [08:20].
04. IV. Sanctus. Tranquillo e divotamente [05:09].
05. V. Benedictus. Adagio supplicante [?] [03:54].
06. VI. Agnus Dei. Grave flebile [07:05].
Месса в честь Девы Марии-Звезды моря (Missa Stella maris) G-dur для смешанного хора и органа, op. 49 № 4 (1930-е, опубл. 1937).
07. I. Kyrie [05:30].
08. II. Gloria. Con moto [05:28].
09. III. Credo. Moderato maestoso [09:46].
10. IV. Sanctus. Largo solenne [02:57].
11. V. Benedictus [02:23].
12. VI. Agnus Dei [05:11].-Исполнители:
Anna Dramowicz (орган, 1 — 6).
Maciej Ingielewicz (орган, 7 — 12).
Olsztyn Chamber Choir «Collegium Musicum» (хормейстер Janusz Wiliński).
Felix Nowowiejski Philharmonic in Olsztyn Symphony Orchestra.
Дирижер Janusz Przybylski.-

Лог создания рипа

Exact Audio Copy V1.0 beta 3 from 29. August 2011
EAC extraction logfile from 15. March 2013, 18:55
Various Artists / Felix Nowowiejski - Missa pro Pace, Missa Stella Maris - VA
Used drive : TSSTcorpCDDVDW SH-222BB Adapter: 2 ID: 1
Read mode : SecureUtilize accurate stream : YesDefeat audio cache : YesMake use of C2 pointers : No
Read offset correction : 6Overread into Lead-In and Lead-Out : NoFill up missing offset samples with silence : YesDelete leading and trailing silent blocks : NoNull samples used in CRC calculations : YesUsed interface : Native Win32 interface for Win NT & 2000
Used output format : User Defined EncoderSelected bitrate : 1024 kBit/sQuality : HighAdd ID3 tag : NoCommand line compressor : C:\Program Files\Exact Audio Copy\Flac\flac.exeAdditional command line options : -8 -V -T "TITLE=%title%" -T "ARTIST=%artist%" -T "ALBUMARTIST=%albumartist%" -T "ALBUM=%albumtitle%" -T "DATE=%year%" -T "TRACKNUMBER=%tracknr%" -T "TRACKTOTAL=%numtracks%" -T "GENRE=%genre%" -T "COMMENT=%comment%" -T "PERFORMER=%albuminterpret%" -T "COMPOSER=%composer%" %source% -o %dest%
TOC of the extracted CD
Track | Start | Length | Start sector | End sector --------------------------------------------------------- 1 | 0:00.00 | 6:33.55 | 0 | 29529 2 | 6:33.55 | 5:21.33 | 29530 | 53637 3 | 11:55.13 | 8:19.47 | 53638 | 91109 4 | 20:14.60 | 5:08.46 | 91110 | 114255 5 | 25:23.31 | 3:54.01 | 114256 | 131806 6 | 29:17.32 | 7:05.32 | 131807 | 163713 7 | 36:22.64 | 5:30.31 | 163714 | 188494 8 | 41:53.20 | 5:28.24 | 188495 | 213118 9 | 47:21.44 | 9:46.01 | 213119 | 257069 10 | 57:07.45 | 2:57.04 | 257070 | 270348 11 | 60:04.49 | 2:23.15 | 270349 | 281088 12 | 62:27.64 | 5:11.10 | 281089 | 304423
Range status and errors
Selected range
Filename G:\Ripped general\[9075] Felix Nowowiejski – Missa pro Pace, Missa Stella Maris – VA\Felix Nowowiejski - Missa pro Pace, Missa Stella Maris - VA.wav
Peak level 96.2 % Extraction speed 7.1 X Range quality 100.0 % Test CRC FC906246 Copy CRC FC906246 Copy OK
No errors occurred
AccurateRip summary
Track 1 not present in databaseTrack 2 not present in databaseTrack 3 not present in databaseTrack 4 not present in databaseTrack 5 not present in databaseTrack 6 not present in databaseTrack 7 not present in databaseTrack 8 not present in databaseTrack 9 not present in databaseTrack 10 not present in databaseTrack 11 not present in databaseTrack 12 not present in database
None of the tracks are present in the AccurateRip database
End of status report

Содержание индексной карты (.CUE)

REM DISCID B40FDA0CREM COMMENT "ExactAudioCopy v1.0b3"PERFORMER "Janusz Wilinski"TITLE "Nowowiejski – Masses – Janusz Wilinski"FILE "Nowowiejski – Masses – Janusz Wilinski.flac" WAVE TRACK 01 AUDIO TITLE "Missa pro pace, Op. 49 no. 3 - I. Kyrie" PERFORMER "Janusz Wilinski" INDEX 01 00:00:00 TRACK 02 AUDIO TITLE "Missa pro pace, Op. 49 no. 3 - II. Gloria" PERFORMER "Janusz Wilinski" INDEX 01 06:33:55 TRACK 03 AUDIO TITLE "Missa pro pace, Op. 49 no. 3 - III. Credo" PERFORMER "Janusz Wilinski" INDEX 01 11:55:13 TRACK 04 AUDIO TITLE "Missa pro pace, Op. 49 no. 3 - IV. Sanctus" PERFORMER "Janusz Wilinski" INDEX 01 20:14:60 TRACK 05 AUDIO TITLE "Missa pro pace, Op. 49 no. 3 - V. Benedictus" PERFORMER "Janusz Wilinski" INDEX 01 25:23:31 TRACK 06 AUDIO TITLE "Missa pro pace, Op. 49 no. 3 - VI. Agnus Dei" PERFORMER "Janusz Wilinski" INDEX 01 29:17:32 TRACK 07 AUDIO TITLE "Missa Stella Maris, Op. 49 no. 4 - I. Kyrie" PERFORMER "Janusz Wilinski" INDEX 00 36:13:34 INDEX 01 36:22:64 TRACK 08 AUDIO TITLE "Missa Stella Maris, Op. 49 no. 4 - II. Gloria" PERFORMER "Janusz Wilinski" INDEX 01 41:53:20 TRACK 09 AUDIO TITLE "Missa Stella Maris, Op. 49 no. 4 - III. Credo" PERFORMER "Janusz Wilinski" INDEX 01 47:21:44 TRACK 10 AUDIO TITLE "Missa Stella Maris, Op. 49 no. 4 - IV. Sanctus" PERFORMER "Janusz Wilinski" INDEX 01 57:07:45 TRACK 11 AUDIO TITLE "Missa Stella Maris, Op. 49 no. 4 - V. Benedictus" PERFORMER "Janusz Wilinski" INDEX 01 60:04:49 TRACK 12 AUDIO TITLE "Missa Stella Maris, Op. 49 no. 4 - VI. Agnus Dei" PERFORMER "Janusz Wilinski" INDEX 01 62:27:64

Вариант индексной карты (.CUE) с разделением Gloria и Credo на несколько треков

REM DISCID B40FDA0CREM COMMENT "ExactAudioCopy v1.0b3"PERFORMER "Janusz Wilinski"TITLE "Nowowiejski – Masses – Janusz Wilinski"FILE "Nowowiejski – Masses – Janusz Wilinski.flac" WAVE TRACK 01 AUDIO TITLE "Missa pro pace, Op. 49 no. 3 - I. Kyrie" PERFORMER "Janusz Wilinski" INDEX 01 00:00:00 TRACK 02 AUDIO TITLE "Missa pro pace, Op. 49 no. 3 - II. Gloria - Et in terra -" PERFORMER "Janusz Wilinski" INDEX 01 06:33:55 TRACK 03 AUDIO TITLE "Missa pro pace, Op. 49 no. 3 - II. Gloria - Qui tollis -" PERFORMER "Janusz Wilinski" INDEX 01 08:44:28 TRACK 04 AUDIO TITLE "Missa pro pace, Op. 49 no. 3 - II. Gloria - Quoniam tu solus" PERFORMER "Janusz Wilinski" INDEX 01 10:26:67 TRACK 05 AUDIO TITLE "Missa pro pace, Op. 49 no. 3 - III. Credo - Patrem omnipotentem -" PERFORMER "Janusz Wilinski" INDEX 00 11:54:34 INDEX 01 11:55:13 TRACK 06 AUDIO TITLE "Missa pro pace, Op. 49 no. 3 - III. Credo - Et incarnatus -" PERFORMER "Janusz Wilinski" INDEX 01 14:06:24 TRACK 07 AUDIO TITLE "Missa pro pace, Op. 49 no. 3 - III. Credo - Et resurrexit" PERFORMER "Janusz Wilinski" INDEX 01 16:34:02 TRACK 08 AUDIO TITLE "Missa pro pace, Op. 49 no. 3 - IV. Sanctus" PERFORMER "Janusz Wilinski" INDEX 01 20:14:60 TRACK 09 AUDIO TITLE "Missa pro pace, Op. 49 no. 3 - V. Benedictus" PERFORMER "Janusz Wilinski" INDEX 01 25:23:31 TRACK 10 AUDIO TITLE "Missa pro pace, Op. 49 no. 3 - VI. Agnus Dei" PERFORMER "Janusz Wilinski" INDEX 00 29:16:34 INDEX 01 29:17:32 TRACK 11 AUDIO TITLE "Missa Stella Maris, Op. 49 no. 4 - I. Kyrie" PERFORMER "Janusz Wilinski" INDEX 00 36:13:34 INDEX 01 36:22:64 TRACK 12 AUDIO TITLE "Missa Stella Maris, Op. 49 no. 4 - II. Gloria" PERFORMER "Janusz Wilinski" INDEX 01 41:53:20 TRACK 13 AUDIO TITLE "Missa Stella Maris, Op. 49 no. 4 - III. Credo - Patrem omnipotentem -" PERFORMER "Janusz Wilinski" INDEX 01 47:21:44 TRACK 14 AUDIO TITLE "Missa Stella Maris, Op. 49 no. 4 - III. Credo - Et incarnatus -" PERFORMER "Janusz Wilinski" INDEX 01 50:02:46 TRACK 15 AUDIO TITLE "Missa Stella Maris, Op. 49 no. 4 - III. Credo - Et resurrexit" PERFORMER "Janusz Wilinski" INDEX 01 51:42:61 TRACK 16 AUDIO TITLE "Missa Stella Maris, Op. 49 no. 4 - IV. Sanctus" PERFORMER "Janusz Wilinski" INDEX 01 57:07:45 TRACK 17 AUDIO TITLE "Missa Stella Maris, Op. 49 no. 4 - V. Benedictus" PERFORMER "Janusz Wilinski" INDEX 00 60:03:36 INDEX 01 60:04:49 TRACK 18 AUDIO TITLE "Missa Stella Maris, Op. 49 no. 4 - VI. Agnus Dei" PERFORMER "Janusz Wilinski" INDEX 01 62:27:64
[teatrix.ru].t7837.torrent 
Торрент: Зарегистрирован [ 2015-10-14 02:42 ] · B7871F0A4CE0A748807C07C7FE75B60C63A75B6D

Скачать .torrent

Скачать

14 KB

Статус: проверено
Скачан: 0 раз
Размер: 315 MB
terms.php



Быстрый ответ

Имя:

      
Для отправки сообщений необходимо включить JavaScript
Показать сообщения:    

Текущее время: 07-Дек 19:27

Часовой пояс: UTC + 3


Вы можете начинать темы
Вы можете отвечать на сообщения
Вы не можете редактировать свои сообщения
Вы не можете удалять свои сообщения
Вы не можете голосовать в опросах
Вы не можете прикреплять файлы к сообщениям
Вы можете скачивать файлы