(Classical, contemporary) David Briggs, Jeremy Filsell - Choral Music - Vasari Singers, Jeremy Backhouse - 2013, FLAC (image+.cue) lossless


Статистика раздачи [Обновить пиров]
Размер:  293 MB   |    Зарегистрирован:  1 год 1 месяц   |    Скачан:  0 раз

Полного источника не было: Никогда

 
   
 
 
 

[Цитировать]

David Briggs, Jeremy Filsell - Choral Music - Vasari Singers, Jeremy Backhouse
Жанр: Classical, contemporary
Год издания диска: 2013
Издатель (лейбл): Naxos
Номер по каталогу: 8.573111
Дата записи: 2013
Аудиокодек: FLAC
Тип рипа: image+.cue
Битрейт аудио: lossless
Продолжительность: 79:54
Источник: собственный рип
Наличие сканов в содержимом раздачи: да
Треклист:
Jeremy Filsell (b.1964)
[1] Tomorrow shall be my dancing day
[2] Epitaph (Here shadow lie)
[3] If God build not the house
[4] Magnificat (Windsor Service)
[5] Nunc Dimittis (Windsor Service)
[6] The Transfiguration
[7] Te Deum (Windsor Service)
[8] Jubilate (Windsor Service)
David Briggs (b.1962)
[9] Pange lingua
[10] Organ Improvisation on 'Tantum Ergo'
[11]-[15] Messe pour Saint-Sulpice
Исполнители:
Vasari Singers
Jeremy Backhouse

Jeremy Filsell ([1], [3]-[8]) and David Briggs ([10]-[15]) organ

Лог создания рипа

Exact Audio Copy V1.0 beta 3 from 29. August 2011
EAC extraction logfile from 11. February 2015, 22:40
Vasari Singers, Jeremy Backhouse / Briggs, Filsell - Choral Music
Used drive : HL-DT-STDVDRAM GU70N Adapter: 0 ID: 0
Read mode : SecureUtilize accurate stream : YesDefeat audio cache : YesMake use of C2 pointers : No
Read offset correction : 48Overread into Lead-In and Lead-Out : NoFill up missing offset samples with silence : YesDelete leading and trailing silent blocks : NoNull samples used in CRC calculations : YesUsed interface : Native Win32 interface for Win NT & 2000
Used output format : User Defined EncoderSelected bitrate : 128 kBit/sQuality : HighAdd ID3 tag : NoCommand line compressor : C:\Program Files (x86)\Exact Audio Copy\Flac\flac.exeAdditional command line options : -V -8 -T "Date=%year%" -T "Genre=%genre%" %source%
TOC of the extracted CD
Track | Start | Length | Start sector | End sector --------------------------------------------------------- 1 | 0:00.00 | 3:40.17 | 0 | 16516 2 | 3:40.17 | 4:11.50 | 16517 | 35391 3 | 7:51.67 | 8:14.74 | 35392 | 72515 4 | 16:06.66 | 4:34.25 | 72516 | 93090 5 | 20:41.16 | 3:54.31 | 93091 | 110671 6 | 24:35.47 | 5:29.33 | 110672 | 135379 7 | 30:05.05 | 9:21.13 | 135380 | 177467 8 | 39:26.18 | 2:24.30 | 177468 | 188297 9 | 41:50.48 | 6:18.36 | 188298 | 216683 10 | 48:09.09 | 4:55.09 | 216684 | 238817 11 | 53:04.18 | 5:26.24 | 238818 | 263291 12 | 58:30.42 | 9:26.70 | 263292 | 305811 13 | 67:57.37 | 3:37.07 | 305812 | 322093 14 | 71:34.44 | 3:05.59 | 322094 | 336027 15 | 74:40.28 | 5:11.47 | 336028 | 359399
Range status and errors
Selected range
Filename C:\temp\Naxos_8.573111 - Briggs, Filsell - Choral Music\Briggs, Filsell - Choral Music.wav
Peak level 99.2 % Extraction speed 2.3 X Range quality 100.0 % Test CRC FA3C05EC Copy CRC FA3C05EC Copy OK
No errors occurred
AccurateRip summary
Track 1 not present in databaseTrack 2 not present in databaseTrack 3 not present in databaseTrack 4 not present in databaseTrack 5 not present in databaseTrack 6 not present in databaseTrack 7 not present in databaseTrack 8 not present in databaseTrack 9 not present in databaseTrack 10 not present in databaseTrack 11 not present in databaseTrack 12 not present in databaseTrack 13 not present in databaseTrack 14 not present in databaseTrack 15 not present in database
None of the tracks are present in the AccurateRip database
End of status report
==== Log checksum 77619FDDB7FF3CEBBBD649A5896ADE749C232D8B9DE2894BF9BF16D2A657A747 ====
[teatrix.ru].t7838.torrent 
Торрент: Зарегистрирован [ 2015-10-14 02:42 ] · 4DAF09DCEF64D250A7A09B640396EEA56C1A776F

Скачать .torrent

Скачать

24 KB

Статус: проверено
Скачан: 0 раз
Размер: 293 MB
terms.php



Быстрый ответ

Имя:

      
Для отправки сообщений необходимо включить JavaScript
Показать сообщения:    

Текущее время: 11-Дек 03:22

Часовой пояс: UTC + 3


Вы можете начинать темы
Вы можете отвечать на сообщения
Вы не можете редактировать свои сообщения
Вы не можете удалять свои сообщения
Вы не можете голосовать в опросах
Вы не можете прикреплять файлы к сообщениям
Вы можете скачивать файлы