(Oratorio) George Frideric Handel - Messiah (Lunn, Marshall, Gilchrist, Purves, The Cambridge Singers, Royal Philharmonic Orchestra, John Rutter) - 2007, FLAC (image+.cue) lossless


Статистика раздачи [Обновить пиров]
Размер:  644 MB   |    Зарегистрирован:  1 год 1 месяц   |    Скачан:  1 раз

Полного источника не было: 4 месяца 16 дней

 
   
 
 
 

[Цитировать]

George Frideric Handel - Messiah
Cambridge Singers | Royal Philharmonic Orchestra | John Rutter
Жанр: Oratorio
Страна-производитель диска: England
Год издания диска: 2007
Издатель (лейбл): Collegium Records
Номер по каталогу: COLCD 132
Дата записи: 2007
Аудиокодек: FLAC
Тип рипа: image+.cue
Битрейт аудио: lossless
Продолжительность: 2:18:41
Источник: собственный рип
Наличие сканов в содержимом раздачи: да--Исполнители:
Joanne Lunn - soprano
Melanie Marshall - mezzo-soprano
James Gilchrist - tenor
Christopher Purves - bass-baritone
The Cambridge Singers
Royal Philharmonic Orchestra
John Rutter
- conductor-
-

Треклист

CD 1
01.Sinfonia 03:10
02.Comfort ye, my people 03:01
03.Ev'ry valley shall be exalted 03:12
04.And the glory of the Lord 02:31
05.Thus saith the Lord 01:27
06.But who may abide the day of his coming? 04:27
07.And he shall purify 02:37
08.Behold a virgin shall conceive 00:23
09.O thou that tellest good tidings to Zion 05:02
10.For behold, darkness shall cover the earth 02:16
11.The people that walked in darkness 02:56
12.For unto us a child is born 03:59
13.Pifa (Pastoral Symphony) 02:28
14.There were shepherds abiding in the field... 01:19
15.Glory to God 01:58
16.Rejoice greatly, O daughter of Zion 04:14
17.Then shall the eyes of the blind be opened 00:22
18.He shall feed his flock... 04:59
19.His yoke is easy 02:30
20.Behold the lamb of God 02:47
21.He was despised 09:33
CD2
01.Surely he hath borne our griefs 02:09
02.And with his stripes we are healed 01:56
03.All we like sheep are gone astray 03:48
04.All they that see him laugh him to scorn 00:45
05.He trusted in God 02:27
06.Thy rebuke hath broken his heart 01:53
07.Behold, and see if there be any sorrow 01:24
08.He was cut off out of the land of the living 00:22
09.But thou didst not leave his soul in hell 02:18
10.Lift up your head, O ye gates 03:14
11.Unto which of the angels 00:20
12.Let all the angels of God worship him 01:32
13.Thou art gone on high 02:51
14.The Lord gave the word 01:10
15.How beautiful are the feet 02:03
16.Their sound is gone out 01:23
17.Why do the nations so furiously rage together? 02:52
18.Let us break their bonds asunder 01:56
19.He that dwelleth in heaven 00:10
20.That shalt break them 01:53
21.Halleluyah 04:00
22.I know that my Redeemer liveth 05:30
23.Since by man came death 02:14
24.Behold, I tell you a mystery 00:33
25.The trumpet shall sound 08:33
26.Then shall be brought to pass 00:16
27.Oh death, where is thy sting? ... 03:18
28.If God be for us 04:53
29.Worthy is the Lamb that was slain 03:46
30.Amen 03:39

Лог создания рипа

Лог создания рипа CD1

Exact Audio Copy V1.0 beta 2 from 29. April 2011
EAC extraction logfile from 11. July 2015, 21:20
The Cambridge Singers/RPO/Rutter / Handel's Messiah CD 1
Used drive : _NEC DVD_RW ND-3551A Adapter: 0 ID: 0
Read mode : Secure
Utilize accurate stream : Yes
Defeat audio cache : Yes
Make use of C2 pointers : No
Read offset correction : 48
Overread into Lead-In and Lead-Out : No
Fill up missing offset samples with silence : Yes
Delete leading and trailing silent blocks : No
Null samples used in CRC calculations : Yes
Used interface : Native Win32 interface for Win NT & 2000
Used output format : User Defined Encoder
Selected bitrate : 128 kBit/s
Quality : High
Add ID3 tag : No
Command line compressor : D:\Program Files\Exact Audio Copy\Flac\flac.exe
Additional command line options : -V -8 -T "Date=%year%" -T "Genre=%genre%" %source%
TOC of the extracted CD
Track | Start | Length | Start sector | End sector
---------------------------------------------------------
1 | 0:00.00 | 3:10.60 | 0 | 14309
2 | 3:10.60 | 3:01.25 | 14310 | 27909
3 | 6:12.10 | 3:12.14 | 27910 | 42323
4 | 9:24.24 | 2:31.06 | 42324 | 53654
5 | 11:55.30 | 1:27.05 | 53655 | 60184
6 | 13:22.35 | 4:27.17 | 60185 | 80226
7 | 17:49.52 | 2:37.49 | 80227 | 92050
8 | 20:27.26 | 0:23.27 | 92051 | 93802
9 | 20:50.53 | 5:02.44 | 93803 | 116496
10 | 25:53.22 | 2:16.27 | 116497 | 126723
11 | 28:09.49 | 2:56.73 | 126724 | 139996
12 | 31:06.47 | 3:59.25 | 139997 | 157946
13 | 35:05.72 | 2:28.67 | 157947 | 169113
14 | 37:34.64 | 1:19.29 | 169114 | 175067
15 | 38:54.18 | 1:58.53 | 175068 | 183970
16 | 40:52.71 | 4:14.15 | 183971 | 203035
17 | 45:07.11 | 0:22.73 | 203036 | 204758
18 | 45:30.09 | 4:59.20 | 204759 | 227203
19 | 50:29.29 | 2:30.61 | 227204 | 238514
20 | 53:00.15 | 2:47.07 | 238515 | 251046
21 | 55:47.22 | 9:33.33 | 251047 | 294054
Range status and errors
Selected range
Filename C:\RIP\Handel - Messiah (Rutter) CD 1.wav
Peak level 99.1 %
Extraction speed 2.9 X
Range quality 100.0 %
Test CRC 6A343926
Copy CRC 6A343926
Copy OK
No errors occurred
AccurateRip summary
Track 1 not present in database
Track 2 not present in database
Track 3 not present in database
Track 4 not present in database
Track 5 not present in database
Track 6 not present in database
Track 7 not present in database
Track 8 not present in database
Track 9 not present in database
Track 10 not present in database
Track 11 not present in database
Track 12 not present in database
Track 13 not present in database
Track 14 not present in database
Track 15 not present in database
Track 16 not present in database
Track 17 not present in database
Track 18 not present in database
Track 19 not present in database
Track 20 not present in database
Track 21 not present in database
None of the tracks are present in the AccurateRip database
End of status report
==== Log checksum 56E192401354B751728B834947566EEBBD745CCAA85BBE8AC855ABDCCC107791 ====

Лог создания рипа CD2

Exact Audio Copy V1.0 beta 2 from 29. April 2011
EAC extraction logfile from 11. July 2015, 22:35
The Cambridge Singers/RPO/Rutter / Handel's Messiah CD 2
Used drive : _NEC DVD_RW ND-3551A Adapter: 0 ID: 0
Read mode : Secure
Utilize accurate stream : Yes
Defeat audio cache : Yes
Make use of C2 pointers : No
Read offset correction : 48
Overread into Lead-In and Lead-Out : No
Fill up missing offset samples with silence : Yes
Delete leading and trailing silent blocks : No
Null samples used in CRC calculations : Yes
Used interface : Native Win32 interface for Win NT & 2000
Used output format : User Defined Encoder
Selected bitrate : 128 kBit/s
Quality : High
Add ID3 tag : No
Command line compressor : D:\Program Files\Exact Audio Copy\Flac\flac.exe
Additional command line options : -V -8 -T "Date=%year%" -T "Genre=%genre%" %source%
TOC of the extracted CD
Track | Start | Length | Start sector | End sector
---------------------------------------------------------
1 | 0:00.00 | 2:09.27 | 0 | 9701
2 | 2:09.27 | 1:56.72 | 9702 | 18473
3 | 4:06.24 | 3:48.30 | 18474 | 35603
4 | 7:54.54 | 0:45.19 | 35604 | 38997
5 | 8:39.73 | 2:27.38 | 38998 | 50060
6 | 11:07.36 | 1:53.64 | 50061 | 58599
7 | 13:01.25 | 1:24.00 | 58600 | 64899
8 | 14:25.25 | 0:22.60 | 64900 | 66609
9 | 14:48.10 | 2:18.68 | 66610 | 77027
10 | 17:07.03 | 3:14.02 | 77028 | 91579
11 | 20:21.05 | 0:20.53 | 91580 | 93132
12 | 20:41.58 | 1:32.12 | 93133 | 100044
13 | 22:13.70 | 2:51.27 | 100045 | 112896
14 | 25:05.22 | 1:10.36 | 112897 | 118182
15 | 26:15.58 | 2:03.42 | 118183 | 127449
16 | 28:19.25 | 1:23.64 | 127450 | 133738
17 | 29:43.14 | 2:52.18 | 133739 | 146656
18 | 32:35.32 | 1:56.02 | 146657 | 155358
19 | 34:31.34 | 0:10.70 | 155359 | 156178
20 | 34:42.29 | 1:53.09 | 156179 | 164662
21 | 36:35.38 | 4:00.21 | 164663 | 182683
22 | 40:35.59 | 5:30.11 | 182684 | 207444
23 | 46:05.70 | 2:14.18 | 207445 | 217512
24 | 48:20.13 | 0:33.18 | 217513 | 220005
25 | 48:53.31 | 8:33.38 | 220006 | 258518
26 | 57:26.69 | 0:16.03 | 258519 | 259721
27 | 57:42.72 | 3:18.54 | 259722 | 274625
28 | 61:01.51 | 4:53.32 | 274626 | 296632
29 | 65:55.08 | 3:46.03 | 296633 | 313585
30 | 69:41.11 | 3:39.72 | 313586 | 330082
Range status and errors
Selected range
Filename C:\RIP\Handel - Messiah (Rutter) CD 2.wav
Peak level 99.4 %
Extraction speed 2.9 X
Range quality 100.0 %
Test CRC 50B1A204
Copy CRC 50B1A204
Copy OK
No errors occurred
AccurateRip summary
Track 1 not present in database
Track 2 not present in database
Track 3 not present in database
Track 4 not present in database
Track 5 not present in database
Track 6 not present in database
Track 7 not present in database
Track 8 not present in database
Track 9 not present in database
Track 10 not present in database
Track 11 not present in database
Track 12 not present in database
Track 13 not present in database
Track 14 not present in database
Track 15 not present in database
Track 16 not present in database
Track 17 not present in database
Track 18 not present in database
Track 19 not present in database
Track 20 not present in database
Track 21 not present in database
Track 22 not present in database
Track 23 not present in database
Track 24 not present in database
Track 25 not present in database
Track 26 not present in database
Track 27 not present in database
Track 28 not present in database
Track 29 not present in database
Track 30 not present in database
None of the tracks are present in the AccurateRip database
End of status report
==== Log checksum CECA985B15D36242EE12DFF127D9D78A7FA70756BB521A1FFF647CFB1531DDF4 ====
[teatrix.ru].t7839.torrent 
Торрент: Зарегистрирован [ 2015-10-14 02:42 ] · D33E8B7A4E3CF4A8FD3AF9D05A1E43BD630854A6

Скачать .torrent

Скачать

14 KB

Статус: проверено
Скачан: 1 раз
Размер: 644 MB
terms.php



Быстрый ответ

Имя:

      
Для отправки сообщений необходимо включить JavaScript
Показать сообщения:    

Текущее время: 07-Дек 19:29

Часовой пояс: UTC + 3


Вы можете начинать темы
Вы можете отвечать на сообщения
Вы не можете редактировать свои сообщения
Вы не можете удалять свои сообщения
Вы не можете голосовать в опросах
Вы не можете прикреплять файлы к сообщениям
Вы можете скачивать файлы