(Neo-Classical, Opera) [Series "Bernstein Century"] Леонард Бернстайн - Месса / Leonard Bernstein - Mass [1971] (Alan Titus, The Norman Scribner Choir & The Berkshire Boy Choir), 2xCD - 1997, FLAC (tracks+.cue), lossless


Статистика раздачи [Обновить пиров]
Размер:  469 MB   |    Зарегистрирован:  1 год 1 месяц   |    Скачан:  0 раз

Полного источника не было: Никогда

 
   
 
 
 

[Цитировать]

Леонард Бернстайн - Месса (1971)
Театральная пьеса для певцов, актёров, танцоров и оркестра

Leonard Bernstein - Mass (1971)
A Theatre Piece for Singers, Players and Dancers

Жанр: Neo-Classical, Opera
Страна: USA
Год издания диска: 1997
Издатель: Sony Classical
Серия: Bernstein Century
Номер по каталогу: SM2K 63089
Дата записи: 1971
Аудиокодек: FLAC
Тип рипа: tracks+.cue
Битрейт аудио: lossless
Источник: релизёр BonzoDog (what.cd)
Наличие сканов в содержимом раздачи: да (взято с discogs)
Продолжительность: 01:48:29 (54:09+54:20)
Текст литургии Римской Мессы. Дополнительные тексты Стивена Шварца и Леонарда Бернстайна
Text from the liturgy of the Roman Mass. Additional texts by Stephen Schwartz and Leonard Bernstein

Записано в Концертном зале Центра им. Дж. Ф. Кеннеди, Вашингтон и в Студии Б, 52-я ул., 49 Е, Нью-Йорк в августе, сентябре и октябре 1971 года.
Recorded at John F. Kennedy Center Concert Hall, Washington, D.C., and Studio B, 49 E. 52nd Street, New York City, in August, September & October 1971.
Треклист:

CD 1 [54:09]

1. 1. Antiphon: Kyrie Eleison (01:58)
2. 2. Hymn And Psalm: "A Simple Song" (04:42)
3. 3. Responsory: Alleluia (01:07)
4. 1. Prefatory Prayers (05:14)
5. 2. Thrice-Triple Canon: Dominus Vobiscum (00:36)
6. 1. In Nomine Patris (02:00)
7. 2. Prayer For The Congregation (Chorale: "Almighty Father") (01:30)
8. 3. Epiphany (00:54)
9. 1. Confiteor (02:23)
10. 2. Trope: "I Don't Know" (01:38)
11. 3. Trope: "Easy" (05:20)
12. Orchestra Alone (05:09)
13. 1. Gloria Tibi (01:48)
14. 2. Gloria In Excelsis (01:14)
15. 3. Trope: "Half Of The People" (00:58)
16. 4. Trope: "Thank You" (02:46)
17. Orchestra Alone (On A Sequence By Beethoven) (03:56)
18. "The Word Of The Lord" (05:47)
19. "God Said" (05:00)

CD 2 [54:20]

1. 1. Credo In Unum Deum (01:06)
2. 2. Trope: "Non Credo" (02:16)
3. 3. Trope: "Hurry" (01:19)
4. 4. Trope: "World Without End" (01:44)
5. 5. Trope: "I Believe In God" (02:00)
6. (De Profundis, Part 1) (02:59)
7. (De Profundis, Part 2) (02:01)
8. 1. "Our Father..." (01:47)
9. 2. Trope: "I Go On" (02:34)
10. "Holy! Holy! Holy!..." (05:14)
11. "Agnues Dei..." (07:07)
12. "Things Get Broken" (14:21)
13. "Secret Songs" (09:50)
Исполнители:
Алан Титус (баритон), Хор Нормана Скрибнера, Беркширский хор мальчиков, Леонард Бернстайн (дирижёр) и др.
Alan Titus (baritone), The Norman Scribner Choir & The Berkshire Boy Choir, Leonard Bernstein (conductor) etc
Подробнее в сканах буклета / Read more in the booklet scans-

CD 1: Log EAC

Exact Audio Copy V1.0 beta 3 from 29. August 2011
EAC extraction logfile from 21. February 2014, 16:51
Bernstein with The Norman Scribner Choir & The Berkshire Boy Choir / Bernstein Century: Mass
Used drive : HL-DT-STDVDRWBD CA10N Adapter: 1 ID: 1
Read mode : SecureUtilize accurate stream : YesDefeat audio cache : YesMake use of C2 pointers : No
Read offset correction : 667Overread into Lead-In and Lead-Out : NoFill up missing offset samples with silence : YesDelete leading and trailing silent blocks : NoNull samples used in CRC calculations : YesUsed interface : Native Win32 interface for Win NT & 2000Gap handling : Appended to previous track
Used output format : User Defined EncoderSelected bitrate : 1024 kBit/sQuality : HighAdd ID3 tag : NoCommand line compressor : C:\Program Files (x86)\Exact Audio Copy\FLAC\FLAC.EXEAdditional command line options : -8 -V -T "ARTIST=%artist%" -T "TITLE=%title%" -T "ALBUM=%albumtitle%" -T "DATE=%year%" -T "TRACKNUMBER=%tracknr1%" -T "GENRE=%genre%" -T "PERFORMER=%albuminterpret%" -T "COMPOSER=%composer%" %haslyrics%--tag-from-file=LYRICS="%lyricsfile%"%haslyrics% -T "ALBUMARTIST=%albumartist%" -T "DISCNUMBER=%cdnumber%" -T "TOTALDISCS=%totalcds%" -T "TOTALTRACKS=%numtracks%" -T "COMMENT=%comment%" %source% -o %dest%
TOC of the extracted CD
Track | Start | Length | Start sector | End sector --------------------------------------------------------- 1 | 0:00.00 | 1:58.30 | 0 | 8879 2 | 1:58.30 | 4:41.70 | 8880 | 30024 3 | 6:40.25 | 1:07.15 | 30025 | 35064 4 | 7:47.40 | 5:13.62 | 35065 | 58601 5 | 13:01.27 | 0:35.63 | 58602 | 61289 6 | 13:37.15 | 2:00.20 | 61290 | 70309 7 | 15:37.35 | 1:30.25 | 70310 | 77084 8 | 17:07.60 | 0:53.37 | 77085 | 81096 9 | 18:01.22 | 2:22.70 | 81097 | 91816 10 | 20:24.17 | 1:37.70 | 91817 | 99161 11 | 22:02.12 | 5:20.23 | 99162 | 123184 12 | 27:22.35 | 5:09.07 | 123185 | 146366 13 | 32:31.42 | 1:48.05 | 146367 | 154471 14 | 34:19.47 | 1:13.65 | 154472 | 160011 15 | 35:33.37 | 0:57.73 | 160012 | 164359 16 | 36:31.35 | 2:45.42 | 164360 | 176776 17 | 39:17.02 | 4:06.25 | 176777 | 195251 18 | 43:23.27 | 5:46.73 | 195252 | 221274 19 | 49:10.25 | 4:59.50 | 221275 | 243749
Track 1
Filename J:\What.CD\My FLAC\01 - Leonard Bernstein - Mass- I. Devotions before Mass- 1. Antiphon- Kyrie eleison.wav
Pre-gap length 0:00:02.00
Peak level 60.8 % Extraction speed 2.5 X Track quality 100.0 % Test CRC 44012328 Copy CRC 44012328 Accurately ripped (confidence 2) [AA19C315] (AR v2) Copy OK
Track 2
Filename J:\What.CD\My FLAC\02 - Leonard Bernstein - Mass- I. Devotions before Mass- 2. Hymn and Psalm- ''A Simple Song''.wav
Peak level 53.5 % Extraction speed 3.1 X Track quality 100.0 % Test CRC BE5514D1 Copy CRC BE5514D1 Accurately ripped (confidence 2) [8A9729C1] (AR v2) Copy OK
Track 3
Filename J:\What.CD\My FLAC\03 - Leonard Bernstein - Mass- I. Devotions before Mass- 3. Responsory- Alleluia.wav
Peak level 26.2 % Extraction speed 2.3 X Track quality 100.0 % Test CRC 235F3D11 Copy CRC 235F3D11 Accurately ripped (confidence 2) [3522BB44] (AR v2) Copy OK
Track 4
Filename J:\What.CD\My FLAC\04 - Leonard Bernstein - Mass- II. First Introit (Rondo)- 1. Prefatory Prayers.wav
Peak level 95.0 % Extraction speed 3.5 X Track quality 100.0 % Test CRC 048CBFCA Copy CRC 048CBFCA Accurately ripped (confidence 2) [FE039C06] (AR v2) Copy OK
Track 5
Filename J:\What.CD\My FLAC\05 - Leonard Bernstein - Mass- II. First Introit (Rondo)- 2. Thrice-Triple Canon- Dominus vobiscum.wav
Peak level 24.0 % Extraction speed 1.2 X Track quality 99.7 % Test CRC DF38DC98 Copy CRC DF38DC98 Accurately ripped (confidence 2) [FC49F9BA] (AR v2) Copy OK
Track 6
Filename J:\What.CD\My FLAC\06 - Leonard Bernstein - Mass- III. Second Introit- 1. In nomine Patris.wav
Peak level 25.5 % Extraction speed 3.2 X Track quality 100.0 % Test CRC 32791FD0 Copy CRC 32791FD0 Accurately ripped (confidence 2) [CBF38DBE] (AR v2) Copy OK
Track 7
Filename J:\What.CD\My FLAC\07 - Leonard Bernstein - Mass- III. Second Introit- 2. Prayer for the Congregation (Chorale- ''Almighty Father'').wav
Peak level 21.9 % Extraction speed 3.0 X Track quality 100.0 % Test CRC B67CB665 Copy CRC B67CB665 Accurately ripped (confidence 2) [CBF1CD9B] (AR v2) Copy OK
Track 8
Filename J:\What.CD\My FLAC\08 - Leonard Bernstein - Mass- III. Second Introit- 3. Epiphany.wav
Peak level 39.9 % Extraction speed 2.6 X Track quality 100.0 % Test CRC A604FCC6 Copy CRC A604FCC6 Accurately ripped (confidence 2) [EF22B294] (AR v2) Copy OK
Track 9
Filename J:\What.CD\My FLAC\09 - Leonard Bernstein - Mass- IV. Confession- 1. Confiteor.wav
Peak level 100.0 % Extraction speed 3.6 X Track quality 100.0 % Test CRC 1D08A936 Copy CRC 1D08A936 Accurately ripped (confidence 2) [14608929] (AR v2) Copy OK
Track 10
Filename J:\What.CD\My FLAC\10 - Leonard Bernstein - Mass- IV. Confession- 2. Trope- ''I Don't Know''.wav
Peak level 77.6 % Extraction speed 2.4 X Track quality 99.8 % Test CRC 64F00F12 Copy CRC 64F00F12 Accurately ripped (confidence 2) [9C04705A] (AR v2) Copy OK
Track 11
Filename J:\What.CD\My FLAC\11 - Leonard Bernstein - Mass- IV. Confession- 3. Trope- ''Easy''.wav
Peak level 86.8 % Extraction speed 4.3 X Track quality 100.0 % Test CRC 65471842 Copy CRC 65471842 Accurately ripped (confidence 2) [B502A947] (AR v2) Copy OK
Track 12
Filename J:\What.CD\My FLAC\12 - Leonard Bernstein - Mass- V. Meditation No. 1.wav
Peak level 64.2 % Extraction speed 4.0 X Track quality 99.9 % Test CRC B33D3ADF Copy CRC B33D3ADF Accurately ripped (confidence 2) [ADC36024] (AR v2) Copy OK
Track 13
Filename J:\What.CD\My FLAC\13 - Leonard Bernstein - Mass- VI. Gloria- 1. Gloria tibi.wav
Pre-gap length 0:00:00.02
Peak level 67.0 % Extraction speed 3.9 X Track quality 100.0 % Test CRC 93DDC3C4 Copy CRC 93DDC3C4 Accurately ripped (confidence 2) [662B0A98] (AR v2) Copy OK
Track 14
Filename J:\What.CD\My FLAC\14 - Leonard Bernstein - Mass- VI. Gloria- 2. Gloria in excelsis.wav
Peak level 79.5 % Extraction speed 3.5 X Track quality 100.0 % Test CRC D9EB4B90 Copy CRC D9EB4B90 Accurately ripped (confidence 2) [174E3839] (AR v2) Copy OK
Track 15
Filename J:\What.CD\My FLAC\15 - Leonard Bernstein - Mass- VI. Gloria- 3. Trope- ''Half of the People.wav
Peak level 96.9 % Extraction speed 3.3 X Track quality 100.0 % Test CRC 87BA3C10 Copy CRC 87BA3C10 Accurately ripped (confidence 2) [5157C7A3] (AR v2) Copy OK
Track 16
Filename J:\What.CD\My FLAC\16 - Leonard Bernstein - Mass- VI. Gloria- 4. Trope- ''Thank You''.wav
Peak level 37.4 % Extraction speed 4.5 X Track quality 100.0 % Test CRC 8D63C609 Copy CRC 8D63C609 Accurately ripped (confidence 2) [2CD30903] (AR v2) Copy OK
Track 17
Filename J:\What.CD\My FLAC\17 - Leonard Bernstein - Mass- VII. Meditation No. 2.wav
Peak level 99.2 % Extraction speed 4.2 X Track quality 99.9 % Test CRC D04E0873 Copy CRC D04E0873 Accurately ripped (confidence 2) [DA337878] (AR v2) Copy OK
Track 18
Filename J:\What.CD\My FLAC\18 - Leonard Bernstein - Mass- VIII. Epistle- ''The Word of the Lord''.wav
Peak level 67.7 % Extraction speed 5.3 X Track quality 100.0 % Test CRC 98468894 Copy CRC 98468894 Accurately ripped (confidence 2) [47E3B613] (AR v2) Copy OK
Track 19
Filename J:\What.CD\My FLAC\19 - Leonard Bernstein - Mass- IX. Gospel-Sermon- ''God Said''.wav
Peak level 86.8 % Extraction speed 5.4 X Track quality 100.0 % Test CRC 5E2A7A20 Copy CRC 5E2A7A20 Accurately ripped (confidence 2) [93BADCD0] (AR v2) Copy OK
All tracks accurately ripped
No errors occurred
End of status report
---- CUETools DB Plugin V2.1.3
[CTDB TOCID: R4HdUPMwVoVUIGQHNSS4YfKWMzg-] found, Submit result: R4HdUPMwVoVUIGQHNSS4YfKWMzg- has been confirmed[798f2ea5] (2/2) Accurately ripped
==== Log checksum 6C282DC17B7369582D3308E836B4D43D1C2113DEE4B8035F3259BF22C09F28DB ====

CD 1: .CUE

REM GENRE ClassicalREM DATE 1997REM DISCID FA0CB213REM COMMENT "ExactAudioCopy v1.0b3"PERFORMER "Bernstein with The Norman Scribner Choir & The Berkshire Boy Choir"TITLE "Bernstein Century: Mass"FILE "01 - Leonard Bernstein - Mass- I. Devotions before Mass- 1. Antiphon- Kyrie eleison.wav" WAVE TRACK 01 AUDIO TITLE "Mass: I. Devotions before Mass: 1. Antiphon: Kyrie eleison" PERFORMER "Leonard Bernstein" INDEX 01 00:00:00FILE "02 - Leonard Bernstein - Mass- I. Devotions before Mass- 2. Hymn and Psalm- ''A Simple Song''.wav" WAVE TRACK 02 AUDIO TITLE "Mass: I. Devotions before Mass: 2. Hymn and Psalm: 'A Simple Song'" PERFORMER "Leonard Bernstein" INDEX 01 00:00:00FILE "03 - Leonard Bernstein - Mass- I. Devotions before Mass- 3. Responsory- Alleluia.wav" WAVE TRACK 03 AUDIO TITLE "Mass: I. Devotions before Mass: 3. Responsory: Alleluia" PERFORMER "Leonard Bernstein" INDEX 01 00:00:00FILE "04 - Leonard Bernstein - Mass- II. First Introit (Rondo)- 1. Prefatory Prayers.wav" WAVE TRACK 04 AUDIO TITLE "Mass: II. First Introit (Rondo): 1. Prefatory Prayers" PERFORMER "Leonard Bernstein" INDEX 01 00:00:00FILE "05 - Leonard Bernstein - Mass- II. First Introit (Rondo)- 2. Thrice-Triple Canon- Dominus vobiscum.wav" WAVE TRACK 05 AUDIO TITLE "Mass: II. First Introit (Rondo): 2. Thrice-Triple Canon: Dominus vobiscum" PERFORMER "Leonard Bernstein" INDEX 01 00:00:00FILE "06 - Leonard Bernstein - Mass- III. Second Introit- 1. In nomine Patris.wav" WAVE TRACK 06 AUDIO TITLE "Mass: III. Second Introit: 1. In nomine Patris" PERFORMER "Leonard Bernstein" INDEX 01 00:00:00FILE "07 - Leonard Bernstein - Mass- III. Second Introit- 2. Prayer for the Congregation (Chorale- ''Almighty Father'').wav" WAVE TRACK 07 AUDIO TITLE "Mass: III. Second Introit: 2. Prayer for the Congregation (Chorale: 'Almighty..." PERFORMER "Leonard Bernstein" INDEX 01 00:00:00FILE "08 - Leonard Bernstein - Mass- III. Second Introit- 3. Epiphany.wav" WAVE TRACK 08 AUDIO TITLE "Mass: III. Second Introit: 3. Epiphany" PERFORMER "Leonard Bernstein" INDEX 01 00:00:00FILE "09 - Leonard Bernstein - Mass- IV. Confession- 1. Confiteor.wav" WAVE TRACK 09 AUDIO TITLE "Mass: IV. Confession: 1. Confiteor" PERFORMER "Leonard Bernstein" INDEX 01 00:00:00FILE "10 - Leonard Bernstein - Mass- IV. Confession- 2. Trope- ''I Don't Know''.wav" WAVE TRACK 10 AUDIO TITLE "Mass: IV. Confession: 2. Trope: 'I Don't Know'" PERFORMER "Leonard Bernstein" INDEX 01 00:00:00FILE "11 - Leonard Bernstein - Mass- IV. Confession- 3. Trope- ''Easy''.wav" WAVE TRACK 11 AUDIO TITLE "Mass: IV. Confession: 3. Trope: 'Easy'" PERFORMER "Leonard Bernstein" INDEX 01 00:00:00FILE "12 - Leonard Bernstein - Mass- V. Meditation No. 1.wav" WAVE TRACK 12 AUDIO TITLE "Mass: V. Meditation No. 1" PERFORMER "Leonard Bernstein" INDEX 01 00:00:00 TRACK 13 AUDIO TITLE "Mass: VI. Gloria: 1. Gloria tibi" PERFORMER "Leonard Bernstein" INDEX 00 05:09:05FILE "13 - Leonard Bernstein - Mass- VI. Gloria- 1. Gloria tibi.wav" WAVE INDEX 01 00:00:00FILE "14 - Leonard Bernstein - Mass- VI. Gloria- 2. Gloria in excelsis.wav" WAVE TRACK 14 AUDIO TITLE "Mass: VI. Gloria: 2. Gloria in excelsis" PERFORMER "Leonard Bernstein" INDEX 01 00:00:00FILE "15 - Leonard Bernstein - Mass- VI. Gloria- 3. Trope- ''Half of the People.wav" WAVE TRACK 15 AUDIO TITLE "Mass: VI. Gloria: 3. Trope: 'Half of the People" PERFORMER "Leonard Bernstein" INDEX 01 00:00:00FILE "16 - Leonard Bernstein - Mass- VI. Gloria- 4. Trope- ''Thank You''.wav" WAVE TRACK 16 AUDIO TITLE "Mass: VI. Gloria: 4. Trope: 'Thank You'" PERFORMER "Leonard Bernstein" INDEX 01 00:00:00FILE "17 - Leonard Bernstein - Mass- VII. Meditation No. 2.wav" WAVE TRACK 17 AUDIO TITLE "Mass: VII. Meditation No. 2" PERFORMER "Leonard Bernstein" INDEX 01 00:00:00FILE "18 - Leonard Bernstein - Mass- VIII. Epistle- ''The Word of the Lord''.wav" WAVE TRACK 18 AUDIO TITLE "Mass: VIII. Epistle: 'The Word of the Lord'" PERFORMER "Leonard Bernstein" INDEX 01 00:00:00FILE "19 - Leonard Bernstein - Mass- IX. Gospel-Sermon- ''God Said''.wav" WAVE TRACK 19 AUDIO TITLE "Mass: IX. Gospel-Sermon: 'God Said'" PERFORMER "Leonard Bernstein" INDEX 01 00:00:00

CD 2: Log EAC

Exact Audio Copy V1.0 beta 3 from 29. August 2011
EAC extraction logfile from 21. February 2014, 17:27
Bernstein with The Norman Scribner Choir & The Berkshire Boy Choir / Bernstein Century- Mass
Used drive : HL-DT-STDVDRWBD CA10N Adapter: 1 ID: 1
Read mode : SecureUtilize accurate stream : YesDefeat audio cache : YesMake use of C2 pointers : No
Read offset correction : 667Overread into Lead-In and Lead-Out : NoFill up missing offset samples with silence : YesDelete leading and trailing silent blocks : NoNull samples used in CRC calculations : YesUsed interface : Native Win32 interface for Win NT & 2000Gap handling : Appended to previous track
Used output format : User Defined EncoderSelected bitrate : 1024 kBit/sQuality : HighAdd ID3 tag : NoCommand line compressor : C:\Program Files (x86)\Exact Audio Copy\FLAC\FLAC.EXEAdditional command line options : -8 -V -T "ARTIST=%artist%" -T "TITLE=%title%" -T "ALBUM=%albumtitle%" -T "DATE=%year%" -T "TRACKNUMBER=%tracknr1%" -T "GENRE=%genre%" -T "PERFORMER=%albuminterpret%" -T "COMPOSER=%composer%" %haslyrics%--tag-from-file=LYRICS="%lyricsfile%"%haslyrics% -T "ALBUMARTIST=%albumartist%" -T "DISCNUMBER=%cdnumber%" -T "TOTALDISCS=%totalcds%" -T "TOTALTRACKS=%numtracks%" -T "COMMENT=%comment%" %source% -o %dest%
TOC of the extracted CD
Track | Start | Length | Start sector | End sector --------------------------------------------------------- 1 | 0:00.00 | 1:06.17 | 0 | 4966 2 | 1:06.17 | 2:15.45 | 4967 | 15136 3 | 3:21.62 | 1:19.28 | 15137 | 21089 4 | 4:41.15 | 1:43.47 | 21090 | 28861 5 | 6:24.62 | 2:00.35 | 28862 | 37896 6 | 8:25.22 | 2:58.58 | 37897 | 51304 7 | 11:24.05 | 2:04.12 | 51305 | 60616 8 | 13:28.17 | 1:47.08 | 60617 | 68649 9 | 15:15.25 | 2:34.35 | 68650 | 80234 10 | 17:49.60 | 5:14.10 | 80235 | 103794 11 | 23:03.70 | 7:06.37 | 103795 | 135781 12 | 30:10.32 | 14:21.23 | 135782 | 200379 13 | 44:31.55 | 9:50.00 | 200380 | 244629
Track 1
Filename J:\What.CD\My FLAC\01 - Leonard Bernstein - Mass- X. Credo- 1. Credo in unum Deum.wav
Pre-gap length 0:00:02.00
Peak level 37.5 % Extraction speed 2.1 X Track quality 100.0 % Test CRC 6AAF46E2 Copy CRC 6AAF46E2 Accurately ripped (confidence 2) [9A43D975] (AR v2) Copy OK
Track 2
Filename J:\What.CD\My FLAC\02 - Leonard Bernstein - Mass- X. Credo- 2. Trope- ''Non Credo''.wav
Peak level 65.7 % Extraction speed 2.6 X Track quality 100.0 % Test CRC 99188D00 Copy CRC 99188D00 Accurately ripped (confidence 2) [5B875448] (AR v2) Copy OK
Track 3
Filename J:\What.CD\My FLAC\03 - Leonard Bernstein - Mass- X. Credo- 3. Trope- ''Hurry''.wav
Peak level 64.8 % Extraction speed 1.6 X Track quality 99.8 % Test CRC 27DBA9D5 Copy CRC 27DBA9D5 Accurately ripped (confidence 2) [B3CD3872] (AR v2) Copy OK
Track 4
Filename J:\What.CD\My FLAC\04 - Leonard Bernstein - Mass- X. Credo- 4. Trope- ''World Without End''.wav
Peak level 56.3 % Extraction speed 2.6 X Track quality 100.0 % Test CRC 0C50EC8E Copy CRC 0C50EC8E Accurately ripped (confidence 2) [71EDB895] (AR v2) Copy OK
Track 5
Filename J:\What.CD\My FLAC\05 - Leonard Bernstein - Mass- X. Credo- 5. Trope- ''I Believe In God''.wav
Peak level 78.2 % Extraction speed 2.1 X Track quality 99.9 % Test CRC 2C9D13B8 Copy CRC 2C9D13B8 Accurately ripped (confidence 2) [479C2FE9] (AR v2) Copy OK
Track 6
Filename J:\What.CD\My FLAC\06 - Leonard Bernstein - Mass- XI. Meditation No. 3- (De profundis, part 1).wav
Peak level 94.6 % Extraction speed 3.2 X Track quality 100.0 % Test CRC C6E93D09 Copy CRC C6E93D09 Accurately ripped (confidence 2) [135EDCE3] (AR v2) Copy OK
Track 7
Filename J:\What.CD\My FLAC\07 - Leonard Bernstein - Mass- XII. Offertory- (De profundis, part 2).wav
Peak level 82.7 % Extraction speed 2.4 X Track quality 99.9 % Test CRC 9949DF83 Copy CRC 9949DF83 Accurately ripped (confidence 2) [6BC91258] (AR v2) Copy OK
Track 8
Filename J:\What.CD\My FLAC\08 - Leonard Bernstein - Mass- XIII. The Lord's Prayer- 1. Our Father.wav
Pre-gap length 0:00:02.93
Peak level 9.4 % Extraction speed 3.1 X Track quality 100.0 % Test CRC E502AA9D Copy CRC E502AA9D Accurately ripped (confidence 2) [843F99C6] (AR v2) Copy OK
Track 9
Filename J:\What.CD\My FLAC\09 - Leonard Bernstein - Mass- XIII. The Lord's Prayer- 2. Trope- ''I Go On''.wav
Peak level 15.5 % Extraction speed 3.5 X Track quality 100.0 % Test CRC 6903C024 Copy CRC 6903C024 Accurately ripped (confidence 2) [A58D9305] (AR v2) Copy OK
Track 10
Filename J:\What.CD\My FLAC\10 - Leonard Bernstein - Mass- XIV. Sanctus- ''Holy! Holy! Holy!...''.wav
Peak level 82.5 % Extraction speed 4.1 X Track quality 100.0 % Test CRC 9ABFEF46 Copy CRC 9ABFEF46 Accurately ripped (confidence 2) [338F707B] (AR v2) Copy OK
Track 11
Filename J:\What.CD\My FLAC\11 - Leonard Bernstein - Mass- XV. Agnus Dei.wav
Peak level 100.0 % Extraction speed 4.5 X Track quality 100.0 % Test CRC F99B22C9 Copy CRC F99B22C9 Accurately ripped (confidence 2) [671518D3] (AR v2) Copy OK
Track 12
Filename J:\What.CD\My FLAC\12 - Leonard Bernstein - Mass- XVI. Fraction- ''Things Get Broken''.wav
Peak level 92.7 % Extraction speed 5.3 X Track quality 100.0 % Test CRC EDD724D4 Copy CRC EDD724D4 Accurately ripped (confidence 2) [35FAFC0F] (AR v2) Copy OK
Track 13
Filename J:\What.CD\My FLAC\13 - Leonard Bernstein - Mass- XVII. Pax- Communion- ''Secret Songs''.wav
Pre-gap length 0:00:00.37
Peak level 65.7 % Extraction speed 5.2 X Track quality 99.9 % Test CRC 7B3DC3BE Copy CRC 7B3DC3BE Accurately ripped (confidence 2) [6C74FD17] (AR v2) Copy OK
All tracks accurately ripped
No errors occurred
End of status report
---- CUETools DB Plugin V2.1.3
[CTDB TOCID: VyNN5TeZcHnMUD1jR0EhjN6geUw-] found, Submit result: VyNN5TeZcHnMUD1jR0EhjN6geUw- has been confirmed[5ddb37ad] (2/2) Accurately ripped
==== Log checksum C1049990E2D68ABF6E7993C1282B0F0DCEFE4CF875DF4BAF99AD85339A05DF96 ====

CD 2: .CUE

REM GENRE ClassicalREM DATE 1997REM DISCID A50CBD0DREM COMMENT "ExactAudioCopy v1.0b3"PERFORMER "Bernstein with The Norman Scribner Choir & The Berkshire Boy Choir"TITLE "Bernstein Century- Mass"FILE "01 - Leonard Bernstein - Mass- X. Credo- 1. Credo in unum Deum.wav" WAVE TRACK 01 AUDIO TITLE "Mass: X. Credo: 1. Credo in unum Deum" PERFORMER "Leonard Bernstein" INDEX 01 00:00:00FILE "02 - Leonard Bernstein - Mass- X. Credo- 2. Trope- ''Non Credo''.wav" WAVE TRACK 02 AUDIO TITLE "Mass: X. Credo: 2. Trope: 'Non Credo'" PERFORMER "Leonard Bernstein" INDEX 01 00:00:00FILE "03 - Leonard Bernstein - Mass- X. Credo- 3. Trope- ''Hurry''.wav" WAVE TRACK 03 AUDIO TITLE "Mass: X. Credo: 3. Trope: 'Hurry'" PERFORMER "Leonard Bernstein" INDEX 01 00:00:00FILE "04 - Leonard Bernstein - Mass- X. Credo- 4. Trope- ''World Without End''.wav" WAVE TRACK 04 AUDIO TITLE "Mass: X. Credo: 4. Trope: 'World Without End'" PERFORMER "Leonard Bernstein" INDEX 01 00:00:00FILE "05 - Leonard Bernstein - Mass- X. Credo- 5. Trope- ''I Believe In God''.wav" WAVE TRACK 05 AUDIO TITLE "Mass: X. Credo: 5. Trope: 'I Believe In God'" PERFORMER "Leonard Bernstein" INDEX 01 00:00:00FILE "06 - Leonard Bernstein - Mass- XI. Meditation No. 3- (De profundis, part 1).wav" WAVE TRACK 06 AUDIO TITLE "Mass: XI. Meditation No. 3: (De profundis, part 1)" PERFORMER "Leonard Bernstein" INDEX 01 00:00:00FILE "07 - Leonard Bernstein - Mass- XII. Offertory- (De profundis, part 2).wav" WAVE TRACK 07 AUDIO TITLE "Mass: XII. Offertory: (De profundis, part 2)" PERFORMER "Leonard Bernstein" INDEX 01 00:00:00 TRACK 08 AUDIO TITLE "Mass: XIII. The Lord's Prayer: 1. Our Father" PERFORMER "Leonard Bernstein" INDEX 00 02:01:17FILE "08 - Leonard Bernstein - Mass- XIII. The Lord's Prayer- 1. Our Father.wav" WAVE INDEX 01 00:00:00FILE "09 - Leonard Bernstein - Mass- XIII. The Lord's Prayer- 2. Trope- ''I Go On''.wav" WAVE TRACK 09 AUDIO TITLE "Mass: XIII. The Lord's Prayer: 2. Trope: 'I Go On'" PERFORMER "Leonard Bernstein" INDEX 01 00:00:00FILE "10 - Leonard Bernstein - Mass- XIV. Sanctus- ''Holy! Holy! Holy!...''.wav" WAVE TRACK 10 AUDIO TITLE "Mass: XIV. Sanctus: 'Holy! Holy! Holy!...'" PERFORMER "Leonard Bernstein" INDEX 01 00:00:00FILE "11 - Leonard Bernstein - Mass- XV. Agnus Dei.wav" WAVE TRACK 11 AUDIO TITLE "Mass: XV. Agnus Dei" PERFORMER "Leonard Bernstein" INDEX 01 00:00:00FILE "12 - Leonard Bernstein - Mass- XVI. Fraction- ''Things Get Broken''.wav" WAVE TRACK 12 AUDIO TITLE "Mass: XVI. Fraction: 'Things Get Broken'" PERFORMER "Leonard Bernstein" INDEX 01 00:00:00 TRACK 13 AUDIO TITLE "Mass: XVII. Pax: Communion: 'Secret Songs'" PERFORMER "Leonard Bernstein" INDEX 00 14:20:70FILE "13 - Leonard Bernstein - Mass- XVII. Pax- Communion- ''Secret Songs''.wav" WAVE INDEX 01 00:00:00

-

auCDtect Log CD 1

-----------------------
DON'T MODIFY THIS FILE
-----------------------
PERFORMER: auCDtect Task Manager, ver. 1.5.1RC6 build 1.5.1.7Copyright (c) 2008-2010 y-soft. All rights reservedhttp://y-soft.org
ANALYZER: auCDtect: CD records authenticity detector, version 0.8.2Copyright (c) 2004 Oleg Berngardt. All rights reserved.Copyright (c) 2004 Alexander Djourik. All rights reserved.
FILE: 19 - Leonard Bernstein - Mass- IX. Gospel-Sermon- ''God Said''.flac Size: 23754558 Hash: AEDE4E3C2A84D0FAC69E8ECB2788C096 Accuracy: -m0 Conclusion: CDDA 100% Signature: 4055949C90C2C504553170673F40C41A8E7E51B0FILE: 18 - Leonard Bernstein - Mass- VIII. Epistle- ''The Word of the Lord''.flac Size: 23776434 Hash: 7E83EA17A0811F90032CD7368BFD1FB1 Accuracy: -m0 Conclusion: CDDA 100% Signature: 69F5E4892B21D3E38916B4A5843C250D3B1FCB55FILE: 17 - Leonard Bernstein - Mass- VII. Meditation No. 2.flac Size: 15978728 Hash: B2EAE5F51E3F5EBDFC129C05BF9F4EC4 Accuracy: -m0 Conclusion: CDDA 100% Signature: AE596942C25832899D4419C205C02C17D03D954CFILE: 16 - Leonard Bernstein - Mass- VI. Gloria- 4. Trope- ''Thank You''.flac Size: 10740527 Hash: 4CD7F525C0DA936DA152A1BBA228DC43 Accuracy: -m0 Conclusion: CDDA 100% Signature: B57F17DE75D7475C88A627DA30F5FA2B49CC8813FILE: 15 - Leonard Bernstein - Mass- VI. Gloria- 3. Trope- ''Half of the People.flac Size: 5207246 Hash: AD0EE9DAA8185F35466F00AB6904400C Accuracy: -m0 Conclusion: CDDA 100% Signature: B767FED2FF25D892B8ECF1C12C6B4187E860C314FILE: 14 - Leonard Bernstein - Mass- VI. Gloria- 2. Gloria in excelsis.flac Size: 6616647 Hash: F83F1B8AD13C67B99FA360B59F1C310B Accuracy: -m0 Conclusion: CDDA 100% Signature: C33C13901DF4D3653940195801CD174ADA1B169CFILE: 13 - Leonard Bernstein - Mass- VI. Gloria- 1. Gloria tibi.flac Size: 9112418 Hash: AB21DF6C91DE61FC836F53B10D93FAA4 Accuracy: -m0 Conclusion: CDDA 100% Signature: 38510B9274995A3676AABAD6EB01C24B26D50162FILE: 12 - Leonard Bernstein - Mass- V. Meditation No. 1.flac Size: 20786287 Hash: 5C3C9258A19BC036211CFA2F0BFC890F Accuracy: -m0 Conclusion: CDDA 100% Signature: 3F101D2296722395C495C3C17744731DDE3AFF52FILE: 11 - Leonard Bernstein - Mass- IV. Confession- 3. Trope- ''Easy''.flac Size: 25912082 Hash: 07B9C8A90E08A3D427188AF39AD9DC72 Accuracy: -m0 Conclusion: CDDA 100% Signature: 667BBBDA3C89FD8A02B5C37398AF22A472F8214FFILE: 10 - Leonard Bernstein - Mass- IV. Confession- 2. Trope- ''I Don't Know''.flac Size: 8662123 Hash: 488C32404DF79C4C5A70C7196FE26E65 Accuracy: -m0 Conclusion: CDDA 100% Signature: C8D7751488B3A656AE12B1A517EC22E78DE6C8CEFILE: 09 - Leonard Bernstein - Mass- IV. Confession- 1. Confiteor.flac Size: 11991212 Hash: 999F561D621468D1916ECD45EDA7B146 Accuracy: -m0 Conclusion: CDDA 100% Signature: B6E36FDCA4D6560DDB86B172CFD9933D5913735CFILE: 08 - Leonard Bernstein - Mass- III. Second Introit- 3. Epiphany.flac Size: 2917925 Hash: A0D5FB47E1DCA0CC05F5440D467E67EE Accuracy: -m0 Conclusion: CDDA 100% Signature: D6351F2823756401432F9D0D93A54B390FFBB5FCFILE: 07 - Leonard Bernstein - Mass- III. Second Introit- 2. Prayer for the Congregation (Chorale- ''Almighty Father'').flac Size: 5022593 Hash: 77BC0D1E0726FCDB24B10D59D7963018 Accuracy: -m0 Conclusion: CDDA 99% Signature: E5E2CA3968A17EC5534DF3433D03B695E5480C23FILE: 06 - Leonard Bernstein - Mass- III. Second Introit- 1. In nomine Patris.flac Size: 9465208 Hash: B25452FC6A9BE34057CE5DD69A8D08D9 Accuracy: -m0 Conclusion: CDDA 100% Signature: 8FD5874E15607EBE5164219303686F47CE0093E7FILE: 05 - Leonard Bernstein - Mass- II. First Introit (Rondo)- 2. Thrice-Triple Canon- Dominus vobiscum.flac Size: 2380646 Hash: DDF023A57C554061503BC824CA95EA27 Accuracy: -m0 Conclusion: CDDA 100% Signature: FE9D9F69C5860627303A953A3AF5FE6CB07CADD2FILE: 04 - Leonard Bernstein - Mass- II. First Introit (Rondo)- 1. Prefatory Prayers.flac Size: 26994045 Hash: F3E9AE1082A12F93D93A0E235E45027B Accuracy: -m0 Conclusion: CDDA 100% Signature: 97FE1C8140707E4AFE59A824C5D871DE1DB1614CFILE: 03 - Leonard Bernstein - Mass- I. Devotions before Mass- 3. Responsory- Alleluia.flac Size: 4768986 Hash: 71CB5AACB670CCB2728DF50650550416 Accuracy: -m0 Conclusion: CDDA 100% Signature: CDF4AA218AD5EA0FCD72048967C72C92CB98CDEBFILE: 02 - Leonard Bernstein - Mass- I. Devotions before Mass- 2. Hymn and Psalm- ''A Simple Song''.flac Size: 18268969 Hash: 944ABAA16B898EAB0070DDAB1E78493A Accuracy: -m0 Conclusion: CDDA 100% Signature: F76D9D28E77E6B883958701FCB27D93CE0E265C8FILE: 01 - Leonard Bernstein - Mass- I. Devotions before Mass- 1. Antiphon- Kyrie eleison.flac Size: 10213261 Hash: 65783458AB38380DA68C4977458D6400 Accuracy: -m0 Conclusion: CDDA 100% Signature: 636B505FC96EBABD82C4D16572B3CB0A1A08F508

auCDtect Log CD 2

-----------------------
DON'T MODIFY THIS FILE
-----------------------
PERFORMER: auCDtect Task Manager, ver. 1.5.1RC6 build 1.5.1.7Copyright (c) 2008-2010 y-soft. All rights reservedhttp://y-soft.org
ANALYZER: auCDtect: CD records authenticity detector, version 0.8.2Copyright (c) 2004 Oleg Berngardt. All rights reserved.Copyright (c) 2004 Alexander Djourik. All rights reserved.
FILE: 13 - Leonard Bernstein - Mass- XVII. Pax- Communion- ''Secret Songs''.flac Size: 37710149 Hash: D14E2AF9D2AD8A99FDBDB479C0913A1F Accuracy: -m0 Conclusion: CDDA 100% Signature: B6A39CA618E0A6C82DEB4F97A229B8D34C413B2BFILE: 12 - Leonard Bernstein - Mass- XVI. Fraction- ''Things Get Broken''.flac Size: 57730888 Hash: BD7375393B9D9F18FBC8599677D9361B Accuracy: -m0 Conclusion: CDDA 100% Signature: 5C26EE9CF31CEAD4C6AA258C8666F94F88C78397FILE: 11 - Leonard Bernstein - Mass- XV. Agnus Dei.flac Size: 40770079 Hash: E525F7A754408A52DBABA7C8819B9D62 Accuracy: -m0 Conclusion: CDDA 100% Signature: 7EFD1A718FF6E2946055688B2EF45230A605097CFILE: 10 - Leonard Bernstein - Mass- XIV. Sanctus- ''Holy! Holy! Holy!...''.flac Size: 24801088 Hash: 006BF9AC25830727A20BAE7FDDE1F545 Accuracy: -m0 Conclusion: CDDA 100% Signature: 2687852ECFD0F46B22D641E982ACE561AD8785F0FILE: 09 - Leonard Bernstein - Mass- XIII. The Lord's Prayer- 2. Trope- ''I Go On''.flac Size: 7934563 Hash: E094C5DDC858E2F73B4631BAE7FBC4CE Accuracy: -m0 Conclusion: CDDA 100% Signature: 24F0B53CC454EAF161BAFF22D701C805F39C6BFDFILE: 08 - Leonard Bernstein - Mass- XIII. The Lord's Prayer- 1. Our Father.flac Size: 5462037 Hash: 486F6BE0D376A329B627B5CA22A85C4E Accuracy: -m0 Conclusion: CDDA 100% Signature: C6D4B19FE151AE5B9DD03101938055736F35C57FFILE: 07 - Leonard Bernstein - Mass- XII. Offertory- (De profundis, part 2).flac Size: 11789559 Hash: D0AC1BDFA02FA8BDEE1852239B2B4D89 Accuracy: -m0 Conclusion: CDDA 99% Signature: E3BC05847DD8AF5597BA9BDFAEFCA19DCDA68A08FILE: 06 - Leonard Bernstein - Mass- XI. Meditation No. 3- (De profundis, part 1).flac Size: 14937697 Hash: CE83DA2CB5C23E118176C74B1501FB26 Accuracy: -m0 Conclusion: CDDA 100% Signature: C36AF5F4E7039BBC1E0CAB8C97974BE5DEBED251FILE: 05 - Leonard Bernstein - Mass- X. Credo- 5. Trope- ''I Believe In God''.flac Size: 9686043 Hash: 6D93A390C920FB9F7603272DAFCF7332 Accuracy: -m0 Conclusion: CDDA 99% Signature: B029B6D645A10144B7EB736937EC4E3E811FF72FFILE: 04 - Leonard Bernstein - Mass- X. Credo- 4. Trope- ''World Without End''.flac Size: 8471535 Hash: 46014386000B17EF3C0453E8C4FD41BC Accuracy: -m0 Conclusion: CDDA 99% Signature: DB4C8A18117D002DF16D1F5F25A44785CC49BBB8FILE: 03 - Leonard Bernstein - Mass- X. Credo- 3. Trope- ''Hurry''.flac Size: 5814135 Hash: 3F7CD42F07F8AC8A3230059B3A8BF243 Accuracy: -m0 Conclusion: CDDA 99% Signature: B0064D5A99CBF92205AFFE130CACAF08F6621A3CFILE: 02 - Leonard Bernstein - Mass- X. Credo- 2. Trope- ''Non Credo''.flac Size: 10678708 Hash: EC39B0CFF89775B5525F3BD3BC6CC360 Accuracy: -m0 Conclusion: CDDA 100% Signature: 30DC163609D7D0A29D3BEE4B7C922DFA5C860537FILE: 01 - Leonard Bernstein - Mass- X. Credo- 1. Credo in unum Deum.flac Size: 5738587 Hash: 2665B4C59C47585BD2E46295CCB07358 Accuracy: -m0 Conclusion: CDDA 100% Signature: 7F5540C6954748A188346B2B096BB7ECB71DB5E0
См. также / Also -> (Sacred Music) Leonard Bernstein - Mass (Jubilant Sykes, Marin Alsop) [2CD]- 2008, FLAC (tracks+.cue), lossless
Leonard Bernstein — Mass (Morten Frank Larsen, Julius Foo, BBC NO & Ch. of Wales, NYO & Ch. of Wales, Kristjan Jarvi) [BBC Proms 2012, Classical, Choral, Contemporary, StreamRip]--
[teatrix.ru].t7843.torrent 
Торрент: Зарегистрирован [ 2015-10-14 02:42 ] · 0E2C248A79B040D73B7D05BC37D6EA1D29F7BFE9

Скачать .torrent

Скачать

29 KB

Статус: проверено
Скачан: 0 раз
Размер: 469 MB
terms.php



Быстрый ответ

Имя:

      
Для отправки сообщений необходимо включить JavaScript
Показать сообщения:    

Текущее время: 10-Дек 00:21

Часовой пояс: UTC + 3


Вы можете начинать темы
Вы можете отвечать на сообщения
Вы не можете редактировать свои сообщения
Вы не можете удалять свои сообщения
Вы не можете голосовать в опросах
Вы не можете прикреплять файлы к сообщениям
Вы можете скачивать файлы