(Baroque Oratorio) Handel - Judas Maccabaeus (Young, Harper, Shirley-Quirk, Clark - English Chamber Orchestra, Somary) - 2003, APE (image+.cue) lossless


Статистика раздачи [Обновить пиров]
Размер:  643 MB   |    Зарегистрирован:  1 год 1 месяц   |    Скачан:  0 раз

Полного источника не было: Никогда

 
   
 
 
 

[Цитировать]

George Frideric Handel - Judas Maccabaeus, HWV 63
Жанр: Baroque Oratorio
Страна-производитель диска: EU
Год издания диска: 2003
Издатель (лейбл): Brilliant Classics
Номер по каталогу: 99777-4/5
Дата записи: 1972
Аудиокодек: APE
Тип рипа: image+.cue
Битрейт аудио: lossless
Продолжительность: 71'29+72'25
Источник: собственный рип
Наличие сканов в содержимом раздачи: да
Треклист:

CD1

1. Israelite Messenger 'Oh Judas, Oh My Brethren!'
2. Isrelite Woman, Chorus 'Ah! Wretched Israel'
3. Simon 'Be Comforted'
4. Simon 'The Lord Worketh Wonders'
5. Judas 'My Arms!'
6. Judas, Chorus 'Sound An Alarm!'
7. Chorus 'We Hear'
8. Simon 'Enough! To Heaven We Leave The Rest'
9. Simon 'With Pious Hearts'
10. Israelite Man, Woman 'Ye Worshippers'
11. Israelite Woman 'Wise Men, Flattering'
12. Israelite Woman, Man 'Oh! Never, Never How'
13. Chorus 'We Never Will Bow Down'
14. Israelite Man 'Father Of Heaven'
15. Israelite Man 'See Yon Flames'
16. Israelite Woman 'Oh Grant It'
17. Israelite Woman 'So Shall The Lute'
18. Israel Messenger 'From Capharsalama'
19. Chorus 'See The Conquering Hero'
21. Duet And Chorus 'Sing Unto God'
22. Judas 'Sweet Flow The Strains'
23. Judas With Honor Let Desert'
24. Eupolemus 'Peace To My Countrymen'
25. Chorus 'To Our Great God'
26. Israelite Woman 'Again To Earth'
27. Israelite Woman, Man (Duet) 'Oh Lovely Peace'
28. Simon 'Rejoice Oh Judah!'
29. Chorus 'Hallelujah - Amen'

CD2

1. Overture Largo - Allegro - Largo
2. Chorus 'Mourn, Ye Afflicted Children'
3. Israelite Man, Woman 'Well May Your Sorrows'
4. Chorus 'For Zion Lamentation Make'
5. Israelite Man 'Not In Vain Is All This Storm'
6. Israelite Woman 'Pious Orgies'
7. Chorus 'O Father, Whose Almighty Power'
8. Simon 'I Feel The Deity Within'
9. Simon 'Arm, Arm, Ye Brave!'
10. Chorus 'We Come In Bright Array'
11. Judas 'Tis Well, My Friends'
12. Judas 'Call Forth Thy Powers'
13. Israelite Woman And Man (Duet) 'Come, Ever-Smiling Liberty'
14. Chorus 'Lead On, Lead On'
15. Judas 'So Willed My Father'
16. Chorus 'Disdainful Of Danger'
17. Judas 'Ambition!'
18. Judas 'No Unhallowed Desire'
19. Israelite Man 'Haste We, My Brethren'
20. Chorus 'Hear Us, Oh Lord'
21. Chorus 'Fallen Is The Foe'
22. Soprano Duet, Chorus 'Zion Now Her Head Shall Raise'
23. Israelite Woman 'Oh Let Eternal Honors'
24. Israelite Woman 'From Mighty Kings'
25. Israelite Woman, Man (Duet) 'Hail, Hail, Judea'
26. Judas 'Thanks To My Brethren'
27. Judas 'How Vain Is Man'
Исполнители:
George Frideric Handel - Judas Maccabaeus, HWV 63
Israelite woman - Heather Harper (soprano)
Israelite man - Helen Watts (contralto)
Judas Maccabaeus - Alexander Young (tenor)
Simon - John Shirley-Quirk (baritone)
Amor Artis Chorale
Wandsworth School Boys Choir
English Chamber Orchestra
Johannes Somary, Conductor

Лог создания рипа

CD1

Exact Audio Copy V1.0 beta 6 from 9. April 2015
EAC extraction logfile from 25. June 2015, 23:42
Handel / Judas Maccabaeus CD1
Used drive : TSSTcorpCDDVDW SE-208AB Adapter: 1 ID: 2
Read mode : Secure
Utilize accurate stream : Yes
Defeat audio cache : Yes
Make use of C2 pointers : No
Read offset correction : 6
Overread into Lead-In and Lead-Out : No
Fill up missing offset samples with silence : Yes
Delete leading and trailing silent blocks : No
Null samples used in CRC calculations : Yes
Used interface : Native Win32 interface for Win NT & 2000
Used output format : Monkey's Audio Lossless Encoder
Selected bitrate : High Lossless Compression
Quality : High
Add ID3 tag : Yes
Command line compressor : C:\Program Files (x86)\Exact Audio Copy\MAC\MAC.exe
TOC of the extracted CD
Track | Start | Length | Start sector | End sector
---------------------------------------------------------
1 | 0:00.33 | 4:43.62 | 33 | 21319
2 | 4:44.20 | 6:33.65 | 21320 | 50859
3 | 11:18.10 | 1:36.45 | 50860 | 58104
4 | 12:54.55 | 2:58.03 | 58105 | 71457
5 | 15:52.58 | 1:04.47 | 71458 | 76304
6 | 16:57.30 | 2:51.38 | 76305 | 89167
7 | 19:48.68 | 2:48.32 | 89168 | 101799
8 | 22:37.25 | 1:06.58 | 101800 | 106807
9 | 23:44.08 | 3:21.70 | 106808 | 121952
10 | 27:06.03 | 1:07.72 | 121953 | 127049
11 | 28:14.00 | 0:42.40 | 127050 | 130239
12 | 28:56.40 | 2:06.35 | 130240 | 139724
13 | 31:03.00 | 1:33.55 | 139725 | 146754
14 | 32:36.55 | 0:53.00 | 146755 | 150729
15 | 33:29.55 | 1:30.48 | 150730 | 157527
16 | 35:00.28 | 2:09.35 | 157528 | 167237
17 | 37:09.63 | 0:20.42 | 167238 | 168779
18 | 37:30.30 | 2:14.68 | 168780 | 178897
19 | 39:45.23 | 0:13.50 | 178898 | 179922
20 | 39:58.73 | 3:28.50 | 179923 | 195572
21 | 43:27.48 | 3:32.27 | 195573 | 211499
22 | 47:00.00 | 5:46.20 | 211500 | 237469
23 | 52:46.20 | 0:41.28 | 237470 | 240572
24 | 53:27.48 | 8:41.20 | 240573 | 279667
25 | 62:08.68 | 2:24.12 | 279668 | 290479
26 | 64:33.05 | 0:49.10 | 290480 | 294164
27 | 65:22.15 | 6:06.05 | 294165 | 321619
Range status and errors
Selected range
Filename D:\EAC\Handel - Judas Maccabaeus CD1.wav
Peak level 93.6 %
Extraction speed 4.7 X
Range quality 100.0 %
Test CRC BB314EDB
Copy CRC BB314EDB
Copy OK
No errors occurred
AccurateRip summary
Track 1 accurately ripped (confidence 5) [12A7F0AB] (AR v2)
Track 2 accurately ripped (confidence 5) [E9CD92CF] (AR v2)
Track 3 accurately ripped (confidence 5) [62FDE70D] (AR v2)
Track 4 accurately ripped (confidence 5) [E7C5E1BE] (AR v2)
Track 5 accurately ripped (confidence 5) [98CFD3CB] (AR v2)
Track 6 accurately ripped (confidence 5) [B4D0D046] (AR v2)
Track 7 accurately ripped (confidence 5) [EBA8BC7B] (AR v2)
Track 8 accurately ripped (confidence 5) [2EF1AB78] (AR v2)
Track 9 accurately ripped (confidence 5) [C29EFF3A] (AR v2)
Track 10 accurately ripped (confidence 5) [7CAF152F] (AR v2)
Track 11 accurately ripped (confidence 5) [C02BE169] (AR v2)
Track 12 accurately ripped (confidence 5) [BB5B8DFC] (AR v2)
Track 13 accurately ripped (confidence 5) [667FB654] (AR v2)
Track 14 accurately ripped (confidence 5) [DA6A9FF2] (AR v2)
Track 15 accurately ripped (confidence 5) [6859C230] (AR v2)
Track 16 accurately ripped (confidence 5) [1417CC0F] (AR v2)
Track 17 accurately ripped (confidence 5) [0FB3F8E1] (AR v2)
Track 18 accurately ripped (confidence 5) [F48A07B5] (AR v2)
Track 19 accurately ripped (confidence 5) [D94DB648] (AR v2)
Track 20 accurately ripped (confidence 5) [F883211E] (AR v2)
Track 21 accurately ripped (confidence 5) [0303BAF5] (AR v2)
Track 22 accurately ripped (confidence 5) [AE34C80F] (AR v2)
Track 23 accurately ripped (confidence 5) [AC31E2E2] (AR v2)
Track 24 accurately ripped (confidence 5) [D52D53F9] (AR v2)
Track 25 accurately ripped (confidence 5) [508195E3] (AR v2)
Track 26 accurately ripped (confidence 5) [A7C27F7A] (AR v2)
Track 27 accurately ripped (confidence 5) [37965CC0] (AR v2)
All tracks accurately ripped
End of status report
---- CUETools DB Plugin V2.1.6
[CTDB TOCID: zzOv_Rr67x2CP.4UVtubuioJksI-] found
Submit result: zzOv_Rr67x2CP.4UVtubuioJksI- has been confirmed
Track | CTDB Status
1 | (2/4) Accurately ripped, or (1/4) differs in 24 samples @03:46:58,03:47:03
2 | (3/4) Accurately ripped
3 | (3/4) Accurately ripped
4 | (3/4) Accurately ripped
5 | (3/4) Accurately ripped
6 | (3/4) Accurately ripped
7 | (3/4) Accurately ripped
8 | (3/4) Accurately ripped
9 | (3/4) Accurately ripped
10 | (3/4) Accurately ripped
11 | (3/4) Accurately ripped
12 | (3/4) Accurately ripped
13 | (3/4) Accurately ripped
14 | (3/4) Accurately ripped
15 | (3/4) Accurately ripped
16 | (3/4) Accurately ripped
17 | (3/4) Accurately ripped
18 | (3/4) Accurately ripped
19 | (3/4) Accurately ripped
20 | (3/4) Accurately ripped
21 | (3/4) Accurately ripped
22 | (3/4) Accurately ripped
23 | (3/4) Accurately ripped
24 | (3/4) Accurately ripped
25 | (3/4) Accurately ripped
26 | (3/4) Accurately ripped
27 | (2/4) Accurately ripped
==== Log checksum F86AAB9AAC2F588A744684E0150AF621F5103E2C3A101E8AAA71E3558A9A7F6F ====

CD2

Exact Audio Copy V1.0 beta 6 from 9. April 2015
EAC extraction logfile from 26. June 2015, 0:39
Handel / Judas Maccabaeus CD2
Used drive : TS8XDVDSTRANSCEND Adapter: 1 ID: 1
Read mode : Secure
Utilize accurate stream : Yes
Defeat audio cache : Yes
Make use of C2 pointers : No
Read offset correction : 6
Overread into Lead-In and Lead-Out : No
Fill up missing offset samples with silence : Yes
Delete leading and trailing silent blocks : No
Null samples used in CRC calculations : Yes
Used interface : Native Win32 interface for Win NT & 2000
Used output format : Monkey's Audio Lossless Encoder
Selected bitrate : High Lossless Compression
Quality : High
Add ID3 tag : Yes
Command line compressor : C:\Program Files (x86)\Exact Audio Copy\MAC\MAC.exe
TOC of the extracted CD
Track | Start | Length | Start sector | End sector
---------------------------------------------------------
1 | 0:00.33 | 0:41.12 | 33 | 3119
2 | 0:41.45 | 7:17.03 | 3120 | 35897
3 | 7:58.48 | 0:48.57 | 35898 | 39554
4 | 8:47.30 | 3:05.08 | 39555 | 53437
5 | 11:52.38 | 0:25.22 | 53438 | 55334
6 | 12:17.60 | 1:38.25 | 55335 | 62709
7 | 13:56.10 | 2:32.20 | 62710 | 74129
8 | 16:28.30 | 0:53.13 | 74130 | 78117
9 | 17:21.43 | 3:25.70 | 78118 | 93562
10 | 20:47.38 | 1:21.22 | 93563 | 99659
11 | 22:08.60 | 5:39.60 | 99660 | 125144
12 | 27:48.45 | 2:26.10 | 125145 | 136104
13 | 30:14.55 | 4:02.05 | 136105 | 154259
14 | 34:16.60 | 6:18.03 | 154260 | 182612
15 | 40:34.63 | 0:40.30 | 182613 | 185642
16 | 41:15.18 | 0:40.47 | 185643 | 188689
17 | 41:55.65 | 4:31.43 | 188690 | 209057
18 | 46:27.33 | 1:30.00 | 209058 | 215807
19 | 47:57.33 | 2:49.72 | 215808 | 228554
20 | 50:47.30 | 1:54.00 | 228555 | 237104
21 | 52:41.30 | 3:04.18 | 237105 | 250922
22 | 55:45.48 | 1:00.42 | 250923 | 255464
23 | 56:46.15 | 3:13.70 | 255465 | 270009
24 | 60:00.10 | 0:51.38 | 270010 | 273872
25 | 60:51.48 | 2:26.62 | 273873 | 284884
26 | 63:18.35 | 1:06.08 | 284885 | 289842
27 | 64:24.43 | 4:19.00 | 289843 | 309267
28 | 68:43.43 | 1:57.05 | 309268 | 318047
29 | 70:40.48 | 1:45.22 | 318048 | 325944
Range status and errors
Selected range
Filename D:\EAC\Handel - Judas Maccabaeus CD2.wav
Peak level 94.4 %
Extraction speed 1.7 X
Range quality 100.0 %
Test CRC 7F03BE49
Copy CRC 7F03BE49
Copy OK
No errors occurred
AccurateRip summary
Track 1 accurately ripped (confidence 4) [A3F61075] (AR v2)
Track 2 accurately ripped (confidence 4) [8184463D] (AR v2)
Track 3 accurately ripped (confidence 4) [3F2CACC1] (AR v2)
Track 4 accurately ripped (confidence 4) [E8DED941] (AR v2)
Track 5 accurately ripped (confidence 4) [ACC772AE] (AR v2)
Track 6 accurately ripped (confidence 4) [F8330374] (AR v2)
Track 7 accurately ripped (confidence 4) [A1D13CDD] (AR v2)
Track 8 accurately ripped (confidence 4) [E175D365] (AR v2)
Track 9 accurately ripped (confidence 4) [D5BAA857] (AR v2)
Track 10 accurately ripped (confidence 4) [10C134C8] (AR v2)
Track 11 accurately ripped (confidence 4) [872B96E0] (AR v2)
Track 12 accurately ripped (confidence 4) [A7B93DB5] (AR v2)
Track 13 accurately ripped (confidence 4) [7F1A8648] (AR v2)
Track 14 accurately ripped (confidence 4) [68C96D88] (AR v2)
Track 15 accurately ripped (confidence 4) [D6C93E7B] (AR v2)
Track 16 accurately ripped (confidence 4) [03BA2AAB] (AR v2)
Track 17 accurately ripped (confidence 4) [C88EE7AB] (AR v2)
Track 18 accurately ripped (confidence 4) [EBFDD0A7] (AR v2)
Track 19 accurately ripped (confidence 4) [7EB88D67] (AR v2)
Track 20 accurately ripped (confidence 4) [05646C14] (AR v2)
Track 21 accurately ripped (confidence 4) [8BD83C04] (AR v2)
Track 22 accurately ripped (confidence 4) [63C18D99] (AR v2)
Track 23 accurately ripped (confidence 4) [7CE119BC] (AR v2)
Track 24 accurately ripped (confidence 4) [5BF863D3] (AR v2)
Track 25 accurately ripped (confidence 4) [9E56ECA1] (AR v2)
Track 26 accurately ripped (confidence 4) [124CAE2C] (AR v2)
Track 27 accurately ripped (confidence 4) [FDCA18D2] (AR v2)
Track 28 accurately ripped (confidence 4) [B2EDA2DB] (AR v2)
Track 29 accurately ripped (confidence 4) [1A74E09C] (AR v2)
All tracks accurately ripped
End of status report
---- CUETools DB Plugin V2.1.6
[CTDB TOCID: arzEMrvzVO86wh1eR4FHfyzVzls-] found
Submit result: unrecognized or virtual drive
Track | CTDB Status
1 | (6/7) Accurately ripped
2 | (6/7) Accurately ripped
3 | (6/7) Accurately ripped
4 | (6/7) Accurately ripped
5 | (6/7) Accurately ripped
6 | (6/7) Accurately ripped
7 | (6/7) Accurately ripped
8 | (6/7) Accurately ripped
9 | (6/7) Accurately ripped
10 | (6/7) Accurately ripped
11 | (6/7) Accurately ripped
12 | (6/7) Accurately ripped
13 | (6/7) Accurately ripped
14 | (6/7) Accurately ripped
15 | (6/7) Accurately ripped
16 | (6/7) Accurately ripped
17 | (6/7) Accurately ripped
18 | (6/7) Accurately ripped
19 | (6/7) Accurately ripped
20 | (6/7) Accurately ripped
21 | (6/7) Accurately ripped
22 | (6/7) Accurately ripped
23 | (6/7) Accurately ripped
24 | (6/7) Accurately ripped
25 | (6/7) Accurately ripped
26 | (6/7) Accurately ripped
27 | (6/7) Accurately ripped
28 | (6/7) Accurately ripped
29 | (7/7) Accurately ripped
==== Log checksum 4550B6CDE417A79532B7CCE480B09EEFC9ADFBBD6AC4B22F7D4CE09EDAA7B350 ====

Содержание индексной карты (.CUE)

CD1

REM GENRE Oratorio
REM DATE 1971
REM DISCID 8C10C01B
REM COMMENT "ExactAudioCopy v1.0b6"
PERFORMER "Handel"
TITLE "Judas Maccabaeus CD1"
FILE "Handel - Judas Maccabaeus CD1.ape" WAVE
TRACK 01 AUDIO
TITLE "Overture"
PERFORMER "Harper, Watts, Young, Sherley-Quirck - English Chamber Orchestra, Somary"
INDEX 00 00:00:00
INDEX 01 00:00:33
TRACK 02 AUDIO
TITLE "Mourn, Ye Afflicted Children"
PERFORMER "Harper, Watts, Young, Sherley-Quirck - English Chamber Orchestra, Somary"
INDEX 00 04:43:40
INDEX 01 04:44:20
TRACK 03 AUDIO
TITLE "Well May Your Sorrows"
PERFORMER "Harper, Watts, Young, Sherley-Quirck - English Chamber Orchestra, Somary"
INDEX 00 11:17:41
INDEX 01 11:18:10
TRACK 04 AUDIO
TITLE "For Zion Lamentation Make"
PERFORMER "Harper, Watts, Young, Sherley-Quirck - English Chamber Orchestra, Somary"
INDEX 01 12:54:55
TRACK 05 AUDIO
TITLE "Not In Vain Is All This Storm"
PERFORMER "Harper, Watts, Young, Sherley-Quirck - English Chamber Orchestra, Somary"
INDEX 01 15:52:58
TRACK 06 AUDIO
TITLE "Pious Orgies"
PERFORMER "Harper, Watts, Young, Sherley-Quirck - English Chamber Orchestra, Somary"
INDEX 01 16:57:30
TRACK 07 AUDIO
TITLE "O Father, Whose Almighty Power"
PERFORMER "Harper, Watts, Young, Sherley-Quirck - English Chamber Orchestra, Somary"
INDEX 01 19:48:68
TRACK 08 AUDIO
TITLE "I Feel The Deity Within"
PERFORMER "Harper, Watts, Young, Sherley-Quirck - English Chamber Orchestra, Somary"
INDEX 00 22:35:23
INDEX 01 22:37:25
TRACK 09 AUDIO
TITLE "Arm, Arm, Ye Brave"
PERFORMER "Harper, Watts, Young, Sherley-Quirck - English Chamber Orchestra, Somary"
INDEX 01 23:44:08
TRACK 10 AUDIO
TITLE "We Come In Bright Array"
PERFORMER "Harper, Watts, Young, Sherley-Quirck - English Chamber Orchestra, Somary"
INDEX 01 27:06:03
TRACK 11 AUDIO
TITLE "'Tis Well, My Friends"
PERFORMER "Harper, Watts, Young, Sherley-Quirck - English Chamber Orchestra, Somary"
INDEX 01 28:14:00
TRACK 12 AUDIO
TITLE "Call Forth Thy Powers"
PERFORMER "Harper, Watts, Young, Sherley-Quirck - English Chamber Orchestra, Somary"
INDEX 01 28:56:40
TRACK 13 AUDIO
TITLE "Come, Ever-Smiling Liberty"
PERFORMER "Harper, Watts, Young, Sherley-Quirck - English Chamber Orchestra, Somary"
INDEX 01 31:03:00
TRACK 14 AUDIO
TITLE "Lead On, Lead On"
PERFORMER "Harper, Watts, Young, Sherley-Quirck - English Chamber Orchestra, Somary"
INDEX 01 32:36:55
TRACK 15 AUDIO
TITLE "So Willed My Father"
PERFORMER "Harper, Watts, Young, Sherley-Quirck - English Chamber Orchestra, Somary"
INDEX 01 33:29:55
TRACK 16 AUDIO
TITLE "Disdainful Of Danger"
PERFORMER "Harper, Watts, Young, Sherley-Quirck - English Chamber Orchestra, Somary"
INDEX 01 35:00:28
TRACK 17 AUDIO
TITLE "Ambition!"
PERFORMER "Harper, Watts, Young, Sherley-Quirck - English Chamber Orchestra, Somary"
INDEX 01 37:09:63
TRACK 18 AUDIO
TITLE "No Unhallowed Desire"
PERFORMER "Harper, Watts, Young, Sherley-Quirck - English Chamber Orchestra, Somary"
INDEX 01 37:30:30
TRACK 19 AUDIO
TITLE "Haste We, My Brethren"
PERFORMER "Harper, Watts, Young, Sherley-Quirck - English Chamber Orchestra, Somary"
INDEX 01 39:45:23
TRACK 20 AUDIO
TITLE "Hear Us, Oh Lord"
PERFORMER "Harper, Watts, Young, Sherley-Quirck - English Chamber Orchestra, Somary"
INDEX 01 39:58:73
TRACK 21 AUDIO
TITLE "Fallen Is The Foe"
PERFORMER "Harper, Watts, Young, Sherley-Quirck - English Chamber Orchestra, Somary"
INDEX 00 43:22:03
INDEX 01 43:27:48
TRACK 22 AUDIO
TITLE "Zion Now Her Head Shall Raise"
PERFORMER "Harper, Watts, Young, Sherley-Quirck - English Chamber Orchestra, Somary"
INDEX 00 46:56:30
INDEX 01 47:00:00
TRACK 23 AUDIO
TITLE "Oh Let Eternal Honors"
PERFORMER "Harper, Watts, Young, Sherley-Quirck - English Chamber Orchestra, Somary"
INDEX 01 52:46:20
TRACK 24 AUDIO
TITLE "From Mighty Kings"
PERFORMER "Harper, Watts, Young, Sherley-Quirck - English Chamber Orchestra, Somary"
INDEX 01 53:27:48
TRACK 25 AUDIO
TITLE "Hail, Hail, Judea"
PERFORMER "Harper, Watts, Young, Sherley-Quirck - English Chamber Orchestra, Somary"
INDEX 01 62:08:68
TRACK 26 AUDIO
TITLE "Thanks To My Brethren"
PERFORMER "Harper, Watts, Young, Sherley-Quirck - English Chamber Orchestra, Somary"
INDEX 01 64:33:05
TRACK 27 AUDIO
TITLE "How Vain Is Man"
PERFORMER "Harper, Watts, Young, Sherley-Quirck - English Chamber Orchestra, Somary"
INDEX 01 65:22:15

CD2

REM GENRE Oratorio
REM DATE 1971
REM DISCID AF10F91D
REM COMMENT "ExactAudioCopy v1.0b6"
PERFORMER "Handel"
TITLE "Judas Maccabaeus CD2"
FILE "Handel - Judas Maccabaeus CD2.ape" WAVE
TRACK 01 AUDIO
TITLE "Oh Judas, Oh My Brethren!"
PERFORMER "Harper, Watts, Young, Sherley-Quirck - English Chamber Orchestra, Somary"
INDEX 00 00:00:00
INDEX 01 00:00:33
TRACK 02 AUDIO
TITLE "Ah! Wretched Israel!"
PERFORMER "Harper, Watts, Young, Sherley-Quirck - English Chamber Orchestra, Somary"
INDEX 01 00:41:45
TRACK 03 AUDIO
TITLE "Be Comforted"
PERFORMER "Harper, Watts, Young, Sherley-Quirck - English Chamber Orchestra, Somary"
INDEX 01 07:58:48
TRACK 04 AUDIO
TITLE "The Lord Worketh Wonders"
PERFORMER "Harper, Watts, Young, Sherley-Quirck - English Chamber Orchestra, Somary"
INDEX 01 08:47:30
TRACK 05 AUDIO
TITLE "My Arms!"
PERFORMER "Harper, Watts, Young, Sherley-Quirck - English Chamber Orchestra, Somary"
INDEX 01 11:52:38
TRACK 06 AUDIO
TITLE "Sound An Alarm!"
PERFORMER "Harper, Watts, Young, Sherley-Quirck - English Chamber Orchestra, Somary"
INDEX 01 12:17:60
TRACK 07 AUDIO
TITLE "We Hear"
PERFORMER "Harper, Watts, Young, Sherley-Quirck - English Chamber Orchestra, Somary"
INDEX 01 13:56:10
TRACK 08 AUDIO
TITLE "Enough! To Heaven We Leave The Rest"
PERFORMER "Harper, Watts, Young, Sherley-Quirck - English Chamber Orchestra, Somary"
INDEX 01 16:28:30
TRACK 09 AUDIO
TITLE "With Pious Hearts"
PERFORMER "Harper, Watts, Young, Sherley-Quirck - English Chamber Orchestra, Somary"
INDEX 01 17:21:43
TRACK 10 AUDIO
TITLE "Ye Worshippers"
PERFORMER "Harper, Watts, Young, Sherley-Quirck - English Chamber Orchestra, Somary"
INDEX 01 20:47:38
TRACK 11 AUDIO
TITLE "Wise Men, Flattering"
PERFORMER "Harper, Watts, Young, Sherley-Quirck - English Chamber Orchestra, Somary"
INDEX 01 22:08:60
TRACK 12 AUDIO
TITLE "Oh! Never, Never Bow"
PERFORMER "Harper, Watts, Young, Sherley-Quirck - English Chamber Orchestra, Somary"
INDEX 00 27:46:15
INDEX 01 27:48:45
TRACK 13 AUDIO
TITLE "We Never Will Bow Down"
PERFORMER "Harper, Watts, Young, Sherley-Quirck - English Chamber Orchestra, Somary"
INDEX 01 30:14:55
TRACK 14 AUDIO
TITLE "Father Of Heaven"
PERFORMER "Harper, Watts, Young, Sherley-Quirck - English Chamber Orchestra, Somary"
INDEX 00 34:13:10
INDEX 01 34:16:60
TRACK 15 AUDIO
TITLE "See Yon Flames"
PERFORMER "Harper, Watts, Young, Sherley-Quirck - English Chamber Orchestra, Somary"
INDEX 01 40:34:63
TRACK 16 AUDIO
TITLE "Oh Grant It"
PERFORMER "Harper, Watts, Young, Sherley-Quirck - English Chamber Orchestra, Somary"
INDEX 01 41:15:18
TRACK 17 AUDIO
TITLE "So Shall The Lute"
PERFORMER "Harper, Watts, Young, Sherley-Quirck - English Chamber Orchestra, Somary"
INDEX 01 41:55:65
TRACK 18 AUDIO
TITLE "From Capharsalama"
PERFORMER "Harper, Watts, Young, Sherley-Quirck - English Chamber Orchestra, Somary"
INDEX 01 46:27:33
TRACK 19 AUDIO
TITLE "See The Conquering Hero"
PERFORMER "Harper, Watts, Young, Sherley-Quirck - English Chamber Orchestra, Somary"
INDEX 01 47:57:33
TRACK 20 AUDIO
TITLE "March"
PERFORMER "Harper, Watts, Young, Sherley-Quirck - English Chamber Orchestra, Somary"
INDEX 01 50:47:30
TRACK 21 AUDIO
TITLE "Sing Unto God"
PERFORMER "Harper, Watts, Young, Sherley-Quirck - English Chamber Orchestra, Somary"
INDEX 00 52:40:50
INDEX 01 52:41:30
TRACK 22 AUDIO
TITLE "Sweet Flow The Strains"
PERFORMER "Harper, Watts, Young, Sherley-Quirck - English Chamber Orchestra, Somary"
INDEX 01 55:45:48
TRACK 23 AUDIO
TITLE "With Honor Let Desert"
PERFORMER "Harper, Watts, Young, Sherley-Quirck - English Chamber Orchestra, Somary"
INDEX 01 56:46:15
TRACK 24 AUDIO
TITLE "Peace To My Countrymen"
PERFORMER "Harper, Watts, Young, Sherley-Quirck - English Chamber Orchestra, Somary"
INDEX 01 60:00:10
TRACK 25 AUDIO
TITLE "To Our Great God"
PERFORMER "Harper, Watts, Young, Sherley-Quirck - English Chamber Orchestra, Somary"
INDEX 01 60:51:48
TRACK 26 AUDIO
TITLE "Again To Eart"
PERFORMER "Harper, Watts, Young, Sherley-Quirck - English Chamber Orchestra, Somary"
INDEX 01 63:18:35
TRACK 27 AUDIO
TITLE "Oh Lovely Peace"
PERFORMER "Harper, Watts, Young, Sherley-Quirck - English Chamber Orchestra, Somary"
INDEX 01 64:24:43
TRACK 28 AUDIO
TITLE "Rejoice Oh Judah!"
PERFORMER "Harper, Watts, Young, Sherley-Quirck - English Chamber Orchestra, Somary"
INDEX 01 68:43:43
TRACK 29 AUDIO
TITLE "Hallelujah-Amen"
PERFORMER "Harper, Watts, Young, Sherley-Quirck - English Chamber Orchestra, Somary"
INDEX 01 70:40:48
Доп. информация:
Along with the 'Occasional Oratorio', which preceded it, 'Judas Maccabeus' marks a significant departure for Handel.
His previous dramatic oratorio, 'Belshazzar' (written to a fine libretto by Charles Jennens) had been well received by the cognoscenti, but had played to poor houses.
This had been followed, on Handel's part, by severe illness.
His contribution to the war effort, as a result of the 1745 rebellion, had been the 'Occasional Oratorio', probably to a libretto by Thomas Morrell.
This was a hastily assembled affair, reusing large chunks of earlier works, but it chimed in with the national mood.
'Judas Maccabeus' was more considered, but again it eschewed the fine wrought dramatic oratorio style of 'Belshazzar' for a more broad, brush approach with far less intrinsic drama.
The libretto was written by Reverend Thomas Morrell. Rector of Buckland in Herts and a perpetual curate of Kew, Morrell was in the circle that surrounded Queen Caroline and was a friend of Garrick and Hogarth.
As a librettist, Morrell was more relaxed, easy going and compliant than his predecessor Charles Jennens (author of the libretti to 'Messiah' and 'Belshazzar').
Handel had easier relations with Morrell than with Jennens.
Though Morrell later recalled the difficulty of supplying an oratorio text 'especially if it be considered, what alterations he must submit to, if the composer be of an haughty disposition and has but an imperfect acquaintance with the English Language'.
'Judas Maccabaeus' was first performed on 1st April 1747.
The title role was sung by the distinguished tenor, John Beard.
The soprano soloist was Elisabetta de Gambarini herself a composer, to whose collection of keyboard lessons and songs Handel subscribed.
It was probably originally conceived of before the 'Occasional Oratorio' but then shelved in favour of that oratorio.
When the project was revived, its mood of triumph and popular rejoicing was made to fit the national mood in the wake of the victorious outcome of Cumberland's Scottish Campaign in 1746.
This is the least dramatic of Handel's narrative oratorios, the military actions are all reported by messengers.
Judas Maccabaeus was the son of an aged priest who took to the mountains in rebellion when Antiochus IV Ephiphanes tried to impose the Greek religion on the Jews, Judas became leader of the rebels on his father's death and won a series of victories over the Syrians in 166–164 BC.
In 166 he purified the Temple of Jerusalem, an event celebrated at Hanukkah. On Antiochus's death in 164, the Seleucids offered the Jews freedom of worship, but Judas continued the war, hoping to gain political freedom.
He was killed soon thereafter, but his brothers carried on the struggle.
The history of the dynasty is told in the two books of Maccabees in the Apocrypha.
There is a significant absence of personal relationships in Handel's oratorio and this is enhanced by the abstract nature of the female roles. They are mainly disembodied voices rather than particular characters. The oratorio proved popular and was revived nearly every succeeding season until Handel's death.
Generally, you can tell from the first notes of the overture whether a Handel performance is going to be to your taste.
Here, the English Chamber Orchestra make an unfashionable rich sound, but they are crisp, rhythmic and not a little stylish. The recording dates from 1972 and the English Chamber Orchestra's Handel was considered very stylish at the time. Somary's speeds are a little on the steady side but not overly so and the performance of the overture never becomes ponderous. Unfortunately things take a turn for the worst when the chorus come on.
They make a huge, vibrato laden sound.
Not only is it completely at odds with current views on Handelian choral sound, it is also at odds with the sound made by the English Chamber Orchestra.
At this point, you might wonder whether it was worth persevering with the recording.
But then along comes Helen Watts.
She sings with such admirable style and flexibility that you want to continue listening.
Her duet with Heather Harper in 'Come ever smiling liberty' is a joy and made you long for more..
Heather Harper is a stylish soprano soloist and her contributions, such as 'Ah! Wretched Israel' are exquisite.
Harper's lovely singing is one of the things that made listening to this recording worth while, when faced with the choral sounds made by the Amor Artis Chorale.
And even they have their moments, when called to be robustly martial, then they are roused to firmer tones.
John Shirley-Quirk makes a fine bravura effort of his first aria 'Arm, arm, ye brave!'.
Quirk's familiar tones lend warmth to Simon's heroic platitudes.
Alexander Young has a bright, steely tone, suitable for Judas.
He is suitably heroic but he seemed a little bogged down by the passage work.
[teatrix.ru].t7844.torrent 
Торрент: Зарегистрирован [ 2015-10-14 02:42 ] · B8C919518A2C2C39F6240139EFC1FFD090A62B1E

Скачать .torrent

Скачать

14 KB

Статус: проверено
Скачан: 0 раз
Размер: 643 MB
terms.php



Быстрый ответ

Имя:

      
Для отправки сообщений необходимо включить JavaScript
Показать сообщения:    

Текущее время: 08-Дек 10:55

Часовой пояс: UTC + 3


Вы можете начинать темы
Вы можете отвечать на сообщения
Вы не можете редактировать свои сообщения
Вы не можете удалять свои сообщения
Вы не можете голосовать в опросах
Вы не можете прикреплять файлы к сообщениям
Вы можете скачивать файлы