(Choral / Sacred) Mayr - Stabat Mater (Bertocchi, Rocchi, Guerini - Coro Polifonico Antiche Armonie / Orchestra da Camera degli Incontri Europei con la Musica, Cattaneo) - 1999, APE (image+.cue) lossless


Статистика раздачи [Обновить пиров]
Размер:  178 MB   |    Зарегистрирован:  1 год 1 месяц   |    Скачан:  0 раз

Полного источника не было: Никогда

 
   
 
 
 

[Цитировать]

Giovanni Simone Mayr - Stabat Mater
Жанр: Choral / Sacred
Страна-производитель диска: Italy
Год издания диска: 1999
Издатель (лейбл): Dynamic
Номер по каталогу: CDS 242
Дата записи: 1998
Аудиокодек: APE
Тип рипа: image+.cue
Битрейт аудио: lossless
Продолжительность: 54'12
Источник: скачано с
Наличие сканов в содержимом раздачи: да
Треклист:
1. Stabat mater
2. O quam tristis
3. Quis est homo
4. Eja mater (a)
5. Eja mater (b)
6. Virgo virginum
7. Flammis ne urar
8. Quando corpus
Исполнители:
Giovanni Simone Mayr - Stabat Mater
Soloists:
Elena Bertocchi, soprano
Sergio Rocchi, tenor
Giovanni Guerini, bass
Coro Polifonico Antiche Armonie
Orchestra da Camera degli Incontri Europei con la Musica
Conductor, Pieralberto Cattaneo
Лог создания рипа
Exact Audio Copy V1.0 beta 6 from 9. April 2015
EAC extraction logfile from 25. June 2015, 21:31
Mayr / Stabat Mater, Cattaneo
Used drive : TSSTcorpCDDVDW SE-208AB Adapter: 1 ID: 2
Read mode : Secure
Utilize accurate stream : Yes
Defeat audio cache : Yes
Make use of C2 pointers : No
Read offset correction : 6
Overread into Lead-In and Lead-Out : No
Fill up missing offset samples with silence : Yes
Delete leading and trailing silent blocks : No
Null samples used in CRC calculations : Yes
Used interface : Native Win32 interface for Win NT & 2000
Used output format : Monkey's Audio Lossless Encoder
Selected bitrate : High Lossless Compression
Quality : High
Add ID3 tag : Yes
Command line compressor : C:\Program Files (x86)\Exact Audio Copy\MAC\MAC.exe
TOC of the extracted CD
Track | Start | Length | Start sector | End sector
---------------------------------------------------------
1 | 0:00.00 | 4:59.05 | 0 | 22429
2 | 4:59.05 | 8:21.70 | 22430 | 60074
3 | 13:21.00 | 8:38.20 | 60075 | 98944
4 | 21:59.20 | 4:05.15 | 98945 | 117334
5 | 26:04.35 | 8:15.46 | 117335 | 154505
6 | 34:20.06 | 7:16.68 | 154506 | 187273
7 | 41:36.74 | 4:29.26 | 187274 | 207474
8 | 46:06.25 | 8:21.04 | 207475 | 245053
Range status and errors
Selected range
Filename D:\EAC\Mayr - Stabat Mater, Cattaneo.wav
Peak level 35.8 %
Extraction speed 4.8 X
Range quality 100.0 %
Test CRC 26C0F950
Copy CRC 26C0F950
Copy OK
No errors occurred
AccurateRip summary
Track 1 not present in database
Track 2 not present in database
Track 3 not present in database
Track 4 not present in database
Track 5 not present in database
Track 6 not present in database
Track 7 not present in database
Track 8 not present in database
None of the tracks are present in the AccurateRip database
End of status report
---- CUETools DB Plugin V2.1.6
[CTDB TOCID: LJuvF1LS2xsvUC31yK55fDjqEWY-] disk not present in database
Submit result: LJuvF1LS2xsvUC31yK55fDjqEWY- has been uploaded
==== Log checksum F6E9479ABB7887E2FFE8869327926BE158ACA372118AD90216D45B4104C18B81 ====

Содержание индексной карты (.CUE)

REM GENRE ChoralREM DATE 1999REM DISCID 620CC308REM COMMENT "ExactAudioCopy v1.0b6"PERFORMER "Mayr"TITLE "Stabat Mater, Cattaneo"FILE "Mayr - Stabat Mater, Cattaneo.ape" WAVE TRACK 01 AUDIO TITLE "Stabat mater" PERFORMER "Bertocchi, Rocchi, Guerini - Coro Polifonico Antiche Armonie" INDEX 01 00:00:00 TRACK 02 AUDIO TITLE "O quam tristis" PERFORMER "Bertocchi, Rocchi, Guerini - Coro Polifonico Antiche Armonie" INDEX 01 04:59:05 TRACK 03 AUDIO TITLE "Quis est homo" PERFORMER "Bertocchi, Rocchi, Guerini - Coro Polifonico Antiche Armonie" INDEX 01 13:21:00 TRACK 04 AUDIO TITLE "Eja mater (a)" PERFORMER "Bertocchi, Rocchi, Guerini - Coro Polifonico Antiche Armonie" INDEX 01 21:59:20 TRACK 05 AUDIO TITLE "Eja mater (b)" PERFORMER "Bertocchi, Rocchi, Guerini - Coro Polifonico Antiche Armonie" INDEX 01 26:04:35 TRACK 06 AUDIO TITLE "Virgo virginum" PERFORMER "Bertocchi, Rocchi, Guerini - Coro Polifonico Antiche Armonie" INDEX 01 34:20:06 TRACK 07 AUDIO TITLE "Flammis ne ura" PERFORMER "Bertocchi, Rocchi, Guerini - Coro Polifonico Antiche Armonie" INDEX 01 41:36:74 TRACK 08 AUDIO TITLE "Quando corpus" PERFORMER "Bertocchi, Rocchi, Guerini - Coro Polifonico Antiche Armonie" INDEX 01 46:06:25

Лог проверки качества

[CUETools log; Date: 25-6-2015 21:34:36; Version: 2.1.4][CTDB TOCID: LJuvF1LS2xsvUC31yK55fDjqEWY-] found.Track | CTDB Status 1 | (1/1) Accurately ripped 2 | (1/1) Accurately ripped 3 | (1/1) Accurately ripped 4 | (1/1) Accurately ripped 5 | (1/1) Accurately ripped 6 | (1/1) Accurately ripped 7 | (1/1) Accurately ripped 8 | (1/1) Accurately ripped[AccurateRip ID: 0010ade6-006f8dbd-620cc308] disk not present in database.
Track Peak [ CRC32 ] [W/O NULL] [ LOG ] -- 35,8 [26C0F950] [05E62D12] CRC32 01 35,6 [3767D7BD] [81462380] 02 35,2 [B4CE50FD] [014806EE] 03 35,3 [57E997A3] [9CA6CEA7] 04 35,4 [55AE3094] [DC1D88B1] 05 35,2 [1EFCF180] [07E1ADD0] 06 35,5 [12053B4C] [65BF156C] 07 35,4 [53F6A697] [ADE70070] 08 35,8 [0EE0EE41] [4C1BDE6F]
[teatrix.ru].t7845.torrent 
Торрент: Зарегистрирован [ 2015-10-14 02:42 ] · 61BC2B10CDD613E1A496B55029D7F46B496EED37

Скачать .torrent

Скачать

15 KB

Статус: проверено
Скачан: 0 раз
Размер: 178 MB
terms.php



Быстрый ответ

Имя:

      
Для отправки сообщений необходимо включить JavaScript
Показать сообщения:    

Текущее время: 04-Дек 13:18

Часовой пояс: UTC + 3


Вы можете начинать темы
Вы можете отвечать на сообщения
Вы не можете редактировать свои сообщения
Вы не можете удалять свои сообщения
Вы не можете голосовать в опросах
Вы не можете прикреплять файлы к сообщениям
Вы можете скачивать файлы