(Classical, Choral) Bach - Matthaus-Passion (Covey-Crump, George, Kirkby, Chance, Hill, Thomas, Choir of King\'s College, Cambridge, The Brandenburg Consort, Roy Goodman, Stephen Cleobury) - 2009, FLAC (image+.cue), lossless


Статистика раздачи [Обновить пиров]
Размер:  690 MB   |    Зарегистрирован:  1 год 1 месяц   |    Скачан:  0 раз

Полного источника не было: Никогда

 
   
 
 
 

[Цитировать]

Bach - Matthaus-Passion - Cleobury
Жанр: Classical, Choral
Страна-производитель диска: EU
Год издания диска: 2009
Издатель (лейбл): Brilliant Classics
Номер по каталогу: 93941
Дата записи: 1994
Аудиокодек: FLAC
Тип рипа: image+.cue
Битрейт аудио: lossless
Продолжительность: 161'02
Источник: собственный рип
Наличие сканов в содержимом раздачи: да

CD1:Треклист:

01. Chorus with Chorale: Kommt, ihr Tochter, helft mir klagen
02. Recitative - Evangelist, Jesus: Da Jesus diese Rede vollendet hatte
03. Chorale: Herzliebster Jesu, was hast du verbrochen
04. Recitative - Evangelist: Da versammleten sich die Hohenpriester
05. Chorus: Ja nicht auf das Fest
06. Recitative - Evangelist: Da nun Jesus war zu Bethanoen
07. Chorus: Wozu dienet dieser Unrat?
08. Recitative - Evangelist, Jesus: Da das Jesus merkete
09. Recitative (Alto): Du lieber Heiland du
10. Aria (Alto): Buss und Reu
11. Recitative - Evangelist, Judas: Da ging hin der Zwolfen einer
12. Aria (Soprano): Blute nur, du liebes Herz!
13. Recitative - Evangelist: Aber am ersten Tage der sussen Brot
14. Chorus: Wo willst du, dass wir dir bereiten
15. Recitative - Evangelist, Jesus: Er sprach: Gehet hin in die Stadt
16. Recitative - Evangelist: Und sie wurden sehr betrubt
17. Chorus: Herr, bin ich's
18. Chorale: Ich bin's, ich sollte bussen
19. Recitative - Evangelist, Jesus, Judas: Er antwortete und sprach
20. Recitative (Soprano): Wiewohl mein Herz in Tranen schwimmt
21. Aria (Soprano): Ich will dir mein Herze schenken
22. Recitative - Evangelist, Jesus: Und da sie den Lobgesang gesprochen hatten
23. Chorale: Erkenne mich, mein Huter
24. Recitative - Evangelist, Peter, Jesus: Petrus aber antwortete und sprach zu ihm
25. Chorale: Ich will hier bei dir stehen
26. Recitative -Evangelist, Jesus: Da kam Jesus mit ihnen zu einem Hofe
27. Recitative (Tenor) with Chorale: O Schmerz! Hier zittert das gequalte Herz
28. Aria (Tenor) with Chorus: Ich will bei meinem Jesu wachen
29. Recitative - Evangelist, Jesus: Und ging hin ein wenig
30. Recitative (Bass): Der Heiland fallt vor seinem Vater nieder
31. Aria (Bass): Gerne will ich mich bequemen
32. Recitative - Evangelist, Jesus: Und er kam zu seinen Jungern
33. Chorale: Was mein Gott will, das g'scheh' allzeit
34. Recitative - Evangelist, Jesus, Judas: Und er kam und fand sie aber schlafend
35. Aria (Soprano and Alto) with Chorus: So ist mein Jesus nun gefangen
36. Chorus: Sind Blitze, sind Donner in Wolken verschwunden
37. Recitative- Evangelist, Jesus: Und siehe, einer aus denen
38. Chorale: O Mensch, bewein dein Sunde gross
Total 67.13

Лог создания рипа:

Exact Audio Copy V1.0 beta 3 from 29. August 2011
Отчёт EAC об извлечении, выполненном 24. июня 2015, 11:19
Stephen Cleobury / Bach - Mattheus Passion
Дисковод: Optiarc DVD RW AD-7260S Adapter: 0 ID: 1
Режим чтения : Достоверность
Использование точного потока : Да
Отключение кэша аудио : Да
Использование указателей C2 : Нет
Коррекция смещения при чтении : 48
Способность читать области Lead-in и Lead-out : Нет
Заполнение пропущенных сэмплов тишиной : Да
Удаление блоков с тишиной в начале и конце : Нет
При вычислениях CRC использовались нулевые сэмплы : Да
Интерфейс : Встроенный Win32-интерфейс для Win NT/2000
Выходной формат : Пользовательский кодировщик
Выбранный битрейт : 896 kBit/s
Качество : Высокий
Добавление ID3-тега : Нет
Утилита сжатия : C:\Program Files\FLAC Frontend\tools\flac.exe
Дополнительные параметры : -V -8 -T "Date=%year%" -T "Genre=%genre%" %source%
TOC извлечённого CD
Трек | Старт | Длительность | Начальный сектор | Конечный сектор
---------------------------------------------------------------------
1 | 0:00.00 | 6:54.30 | 0 | 31079
2 | 6:54.30 | 0:41.55 | 31080 | 34209
3 | 7:36.10 | 0:40.52 | 34210 | 37261
4 | 8:16.62 | 0:28.25 | 37262 | 39386
5 | 8:45.12 | 0:14.08 | 39387 | 40444
6 | 8:59.20 | 0:32.31 | 40445 | 42875
7 | 9:31.51 | 0:29.49 | 42876 | 45099
8 | 10:01.25 | 1:20.60 | 45100 | 51159
9 | 11:22.10 | 0:50.20 | 51160 | 54929
10 | 12:12.30 | 4:06.32 | 54930 | 73411
11 | 16:18.62 | 0:40.15 | 73412 | 76426
12 | 16:59.02 | 4:29.33 | 76427 | 96634
13 | 21:28.35 | 0:11.60 | 96635 | 97519
14 | 21:40.20 | 0:21.02 | 97520 | 99096
15 | 22:01.22 | 1:14.55 | 99097 | 104701
16 | 23:16.02 | 0:11.03 | 104702 | 105529
17 | 23:27.05 | 0:13.60 | 105530 | 106564
18 | 23:40.65 | 0:45.52 | 106565 | 109991
19 | 24:26.42 | 2:53.03 | 109992 | 122969
20 | 27:19.45 | 1:14.10 | 122970 | 128529
21 | 28:33.55 | 3:19.32 | 128530 | 143486
22 | 31:53.12 | 1:01.40 | 143487 | 148101
23 | 32:54.52 | 0:56.13 | 148102 | 152314
24 | 33:50.65 | 1:00.50 | 152315 | 156864
25 | 34:51.40 | 0:57.30 | 156865 | 161169
26 | 35:48.70 | 1:36.62 | 161170 | 168431
27 | 37:25.57 | 1:54.53 | 168432 | 177034
28 | 39:20.35 | 4:58.65 | 177035 | 199449
29 | 44:19.25 | 0:39.45 | 199450 | 202419
30 | 44:58.70 | 0:53.22 | 202420 | 206416
31 | 45:52.17 | 4:08.10 | 206417 | 225026
32 | 50:00.27 | 1:12.10 | 225027 | 230436
33 | 51:12.37 | 1:02.10 | 230437 | 235096
34 | 52:14.47 | 2:18.60 | 235097 | 245506
35 | 54:33.32 | 3:15.59 | 245507 | 260190
36 | 57:49.16 | 1:14.39 | 260191 | 265779
37 | 59:03.55 | 2:13.20 | 265780 | 275774
38 | 61:17.00 | 5:55.66 | 275775 | 302465
Характеристики диапазона извлечения и сообщения об ошибках
Выбранный диапазон
Имя файла D:\EAC\Мои раздачи\Bach - Matthaus-Passion - Cleobury\CD1\Stephen Cleobury - Bach - Mattheus Passion.wav
Пиковый уровень 78.0 %
Скорость извлечения 4.3 X
Качество диапазона 100.0 %
CRC теста 1EEECFCC
CRC копии 1EEECFCC
Копирование... OK
Ошибок не произошло
AccurateRip: сводка
Трек 1 точность не определена (достоверность 3) [A6198BD2], AccurateRip вернул [3E81C864] (AR v2)
Трек 2 точность не определена (достоверность 4) [FA458722], AccurateRip вернул [F6A2AA9F] (AR v2)
Трек 3 точность не определена (достоверность 4) [03879731], AccurateRip вернул [AFE0DD16] (AR v2)
Трек 4 точность не определена (достоверность 4) [B441E066], AccurateRip вернул [5FE7F06E] (AR v2)
Трек 5 точность не определена (достоверность 4) [3C5F8720], AccurateRip вернул [CBB3D02E] (AR v2)
Трек 6 точность не определена (достоверность 4) [5EC81451], AccurateRip вернул [20925F77] (AR v2)
Трек 7 точность не определена (достоверность 4) [D0666F2A], AccurateRip вернул [AB5038AA] (AR v2)
Трек 8 точность не определена (достоверность 4) [875630F9], AccurateRip вернул [9DCE7883] (AR v2)
Трек 9 точность не определена (достоверность 4) [1339F13E], AccurateRip вернул [E2CB71D6] (AR v2)
Трек 10 точность не определена (достоверность 4) [6931BF9F], AccurateRip вернул [687846B4] (AR v2)
Трек 11 точность не определена (достоверность 4) [E4D06368], AccurateRip вернул [FC31C72F] (AR v2)
Трек 12 точность не определена (достоверность 4) [CB35F27F], AccurateRip вернул [4D4E345A] (AR v2)
Трек 13 точность не определена (достоверность 4) [BB5A612E], AccurateRip вернул [1E2016BF] (AR v2)
Трек 14 точность не определена (достоверность 4) [59CDC3D9], AccurateRip вернул [48A5B330] (AR v2)
Трек 15 точность не определена (достоверность 4) [B5647FF9], AccurateRip вернул [347F0215] (AR v2)
Трек 16 точность не определена (достоверность 4) [F92915DF], AccurateRip вернул [5696F8A1] (AR v2)
Трек 17 точность не определена (достоверность 4) [8E7E6CF7], AccurateRip вернул [F2ACBF44] (AR v2)
Трек 18 точность не определена (достоверность 4) [4E78D897], AccurateRip вернул [9CFA6DD2] (AR v2)
Трек 19 точность не определена (достоверность 4) [E02FC1D2], AccurateRip вернул [694A8EE9] (AR v2)
Трек 20 точность не определена (достоверность 4) [82C35ECC], AccurateRip вернул [C51642BE] (AR v2)
Трек 21 точность не определена (достоверность 4) [A8E19493], AccurateRip вернул [7E93A101] (AR v2)
Трек 22 точность не определена (достоверность 4) [7F7A5743], AccurateRip вернул [3F1F5859] (AR v2)
Трек 23 точность не определена (достоверность 4) [58C9F39B], AccurateRip вернул [6FD9B165] (AR v2)
Трек 24 точность не определена (достоверность 4) [82B80CED], AccurateRip вернул [A2CEEF0B] (AR v2)
Трек 25 точность не определена (достоверность 4) [93229E53], AccurateRip вернул [305EC6BF] (AR v2)
Трек 26 точность не определена (достоверность 4) [9444B08B], AccurateRip вернул [AA004DE4] (AR v2)
Трек 27 точность не определена (достоверность 4) [7C4154E4], AccurateRip вернул [F28D1F6D] (AR v2)
Трек 28 точность не определена (достоверность 4) [52767957], AccurateRip вернул [1FA03D95] (AR v2)
Трек 29 точность не определена (достоверность 4) [5E77F229], AccurateRip вернул [3FF8127C] (AR v2)
Трек 30 точность не определена (достоверность 4) [47FDBCDF], AccurateRip вернул [47B65CE1] (AR v2)
Трек 31 точность не определена (достоверность 4) [C3204D17], AccurateRip вернул [445F9258] (AR v2)
Трек 32 точность не определена (достоверность 4) [B277AF7E], AccurateRip вернул [0494ACF2] (AR v2)
Трек 33 точность не определена (достоверность 4) [3C0FBB0A], AccurateRip вернул [3F8919BC] (AR v2)
Трек 34 точность не определена (достоверность 4) [3F5A50CB], AccurateRip вернул [B01D5234] (AR v2)
Трек 35 точность не определена (достоверность 4) [152F8112], AccurateRip вернул [932C19DE] (AR v2)
Трек 36 точность не определена (достоверность 4) [28F9DE89], AccurateRip вернул [BBA15F85] (AR v2)
Трек 37 точность не определена (достоверность 4) [861E0B77], AccurateRip вернул [BB21111D] (AR v2)
Трек 38 точность не определена (достоверность 4) [87D88C1B], AccurateRip вернул [542B79ED] (AR v2)
Ни один трек не прошёл проверки на точность
В вашей базе может быть иной вариант штамповки диска
Конец отчёта
==== Контрольная сумма отчёта 9DB3647459E9D571C6179517976BB6907B6451E3B461BC9E2A94A0E28A003CDE ====

CD2:Треклист:

01. Aria (Alto) with Chorus: Ach! nun ist mein Jesus hin!
02. Recitative -Evangelist: Die aber Jesum gegriffen hatten
03. Chorale: Mir hat die Welt truglich gericht'
04. Recitative- Evangelist, Witnesses, High Priest: Und wiewohl viel falsche Zeug...
05. Recitative (Tenor): Mein Jesus schweigt zu falschen Lugen stille
06. Aria (Tenor): Geduld!
07. Recitative - Evangelist, High Priest, Jesus: Und der Hohepriester antwortete ...
08. Chorus: Er is des Todes schuldig!
09. Recitative - Evangelist: Da speieten sie aus
10. Chorus: Weissage uns, Christe
11. Chorale: Wer hat dich so geschlagen
12. Recitative - Evangelist, Maids, Peter, Petrus aber sass draussen im Palast
13. Chorus: Wahrlich, du bist auch einer von denen
14. Recitative - Evangelist, Peter: Da hub er an, sich zu verfluchen
15. Aria (Alto): Erbarme dich
16. Chorale: Bin ich gleich von dir gewichen
17. Recitative - Evangelist, Judas: Des Morgens aber hielten alle Hohepriester
18. Chorus: Was gehet uns das an?
19. Recitative - Evangelist, High Priest: Und er warf die Silberlinge in den Tempel
20. Aria (Bass): Geht mir meinen Jesum wieder
21. Recitative - Evangelist, Pilate, Jesus: Sie hielten aber einen Rat
22. Chorale: Befiehl du deine Wege
23. Recitative - Evangelist, Pilate, Pilate's wife, Chorus: Auf das Gewohnheit Fe...
24. Chorus: Lass ihn kreuzigen!
25. Chorale: Wie wunderbarlich ist doch diese Strafe!
26. Recitative - Evangelist, Pilate: Der Landpfleger sagte
27. Recitative (Soprano): Er hat uns allen wohlgetan
28. Aria (Soprano): Aus Liebe will mein Heiland sterben
Total 40.51

Лог создания рипа:

Exact Audio Copy V1.0 beta 3 from 29. August 2011
Отчёт EAC об извлечении, выполненном 24. июня 2015, 13:56
Stephen Cleobury / Bach - Mattheus Passion
Дисковод: Optiarc DVD RW AD-7260S Adapter: 0 ID: 1
Режим чтения : Достоверность
Использование точного потока : Да
Отключение кэша аудио : Да
Использование указателей C2 : Нет
Коррекция смещения при чтении : 48
Способность читать области Lead-in и Lead-out : Нет
Заполнение пропущенных сэмплов тишиной : Да
Удаление блоков с тишиной в начале и конце : Нет
При вычислениях CRC использовались нулевые сэмплы : Да
Интерфейс : Встроенный Win32-интерфейс для Win NT/2000
Выходной формат : Пользовательский кодировщик
Выбранный битрейт : 896 kBit/s
Качество : Высокий
Добавление ID3-тега : Нет
Утилита сжатия : C:\Program Files\FLAC Frontend\tools\flac.exe
Дополнительные параметры : -V -8 -T "Date=%year%" -T "Genre=%genre%" %source%
TOC извлечённого CD
Трек | Старт | Длительность | Начальный сектор | Конечный сектор
---------------------------------------------------------------------
1 | 0:00.00 | 3:39.40 | 0 | 16464
2 | 3:39.40 | 1:04.60 | 16465 | 21324
3 | 4:44.25 | 0:39.65 | 21325 | 24314
4 | 5:24.15 | 1:11.55 | 24315 | 29694
5 | 6:35.70 | 1:05.02 | 29695 | 34571
6 | 7:40.72 | 3:28.63 | 34572 | 50234
7 | 11:09.60 | 1:17.47 | 50235 | 56056
8 | 12:27.32 | 0:12.08 | 56057 | 56964
9 | 12:39.40 | 0:14.45 | 56965 | 58059
10 | 12:54.10 | 0:22.42 | 58060 | 59751
11 | 13:16.52 | 0:45.28 | 59752 | 63154
12 | 14:02.05 | 0:58.35 | 63155 | 67539
13 | 15:00.40 | 0:11.52 | 67540 | 68416
14 | 15:12.17 | 1:16.58 | 68417 | 74174
15 | 16:29.00 | 6:00.72 | 74175 | 101246
16 | 22:29.72 | 0:56.03 | 101247 | 105449
17 | 23:26.00 | 1:02.57 | 105450 | 110156
18 | 24:28.57 | 0:08.65 | 110157 | 110821
19 | 24:37.47 | 0:44.68 | 110822 | 114189
20 | 25:22.40 | 2:58.07 | 114190 | 127546
21 | 28:20.47 | 2:14.10 | 127547 | 137606
22 | 30:34.57 | 0:55.43 | 137607 | 141774
23 | 31:30.25 | 2:07.37 | 141775 | 151336
24 | 33:37.62 | 0:22.33 | 151337 | 153019
25 | 34:00.20 | 0:40.42 | 153020 | 156061
26 | 34:40.62 | 0:17.20 | 156062 | 157356
27 | 34:58.07 | 1:05.15 | 157357 | 162246
28 | 36:03.22 | 4:47.66 | 162247 | 183837
Характеристики диапазона извлечения и сообщения об ошибках
Выбранный диапазон
Имя файла D:\EAC\Мои раздачи\Bach - Matthaus-Passion - Cleobury\CD2\Stephen Cleobury - Bach - Mattheus Passion.wav
Пиковый уровень 98.4 %
Скорость извлечения 3.6 X
Качество диапазона 99.9 %
CRC теста 22B0435D
CRC копии 22B0435D
Копирование... OK
Ошибок не произошло
AccurateRip: сводка
Трек 1 точность не определена (достоверность 3) [F57975F7], AccurateRip вернул [013D5C7B] (AR v2)
Трек 2 точность не определена (достоверность 4) [016B78BD], AccurateRip вернул [3CEB24BE] (AR v2)
Трек 3 точность не определена (достоверность 4) [17C8F176], AccurateRip вернул [DD2211B4] (AR v2)
Трек 4 точность не определена (достоверность 4) [7A494D8A], AccurateRip вернул [F23FB2D0] (AR v2)
Трек 5 точность не определена (достоверность 4) [4A11C9EA], AccurateRip вернул [D2EF2725] (AR v2)
Трек 6 точность не определена (достоверность 4) [E7361EEE], AccurateRip вернул [139E8758] (AR v2)
Трек 7 точность не определена (достоверность 4) [3F13C42B], AccurateRip вернул [004E3B21] (AR v2)
Трек 8 точность не определена (достоверность 4) [2F1B92A7], AccurateRip вернул [B81B4ABA] (AR v2)
Трек 9 точность не определена (достоверность 4) [106E4046], AccurateRip вернул [31C2D978] (AR v2)
Трек 10 точность не определена (достоверность 4) [57102DFD], AccurateRip вернул [B93B94B8] (AR v2)
Трек 11 точность не определена (достоверность 4) [E3E27277], AccurateRip вернул [2EF4B9A0] (AR v2)
Трек 12 точность не определена (достоверность 4) [7D66F78B], AccurateRip вернул [24A95E4F] (AR v2)
Трек 13 точность не определена (достоверность 4) [801C2CE8], AccurateRip вернул [62A10ECE] (AR v2)
Трек 14 точность не определена (достоверность 4) [8591A2DA], AccurateRip вернул [74ED6B6A] (AR v2)
Трек 15 точность не определена (достоверность 4) [A429C0C2], AccurateRip вернул [F7D3F447] (AR v2)
Трек 16 точность не определена (достоверность 4) [369DCFE2], AccurateRip вернул [B8E7E443] (AR v2)
Трек 17 точность не определена (достоверность 4) [2F66B3A6], AccurateRip вернул [0C63778B] (AR v2)
Трек 18 точность не определена (достоверность 4) [AF5633BA], AccurateRip вернул [A643B88A] (AR v2)
Трек 19 точность не определена (достоверность 4) [0C65F5A0], AccurateRip вернул [8903CE48] (AR v2)
Трек 20 точность не определена (достоверность 4) [F6D37835], AccurateRip вернул [42DED4D6] (AR v2)
Трек 21 точность не определена (достоверность 4) [D4BB613F], AccurateRip вернул [75E77642] (AR v2)
Трек 22 точность не определена (достоверность 4) [53A83455], AccurateRip вернул [3C567810] (AR v2)
Трек 23 точность не определена (достоверность 4) [248D94A4], AccurateRip вернул [FD7036C2] (AR v2)
Трек 24 точность не определена (достоверность 4) [FC35D3BD], AccurateRip вернул [89FBC2EE] (AR v2)
Трек 25 точность не определена (достоверность 4) [66DF7838], AccurateRip вернул [6459E435] (AR v2)
Трек 26 точность не определена (достоверность 4) [75795646], AccurateRip вернул [DFFCDBB5] (AR v2)
Трек 27 точность не определена (достоверность 4) [68CF6C16], AccurateRip вернул [FCBC2961] (AR v2)
Трек 28 точность не определена (достоверность 4) [19703C8E], AccurateRip вернул [ECE8D2F2] (AR v2)
Ни один трек не прошёл проверки на точность
В вашей базе может быть иной вариант штамповки диска
Конец отчёта
==== Контрольная сумма отчёта D5772BF2B03B04B2905EEB27EE2BE9CE7914E7DC6B5FDF846DE4A3E8AEA0AE00 ====

CD3:Треклист:

01. Recitative -Evangelist: Sie schrieen aber noch mehr
02. Chorus: Lass ihn kreuzigen!
03. Recitative - Evangelist, Pilate: Da aber Pilatus sahe
04. Chorus: Sein Blut komme uber uns
05. Recitative - Evangelist: Da gab er ihnen Barrabam los
06. Recitative (Alto): Erbarm es Gott!
07. Aria (Alto): Konnen Trдnen meiner Wangen
08. Recitative - Evangelist: Da namen die Kriegsknechte
09. Chorus: Gegьsset seist du, Judenkoning
10. Recitative - Evangelist: Und speieten ihn an
11. Chorale: O Haupt voll Blut und Wunden
12. Recitative - Evangelist: Und da sie ihn verspottet hatten
13. Recitative (Bass): Ja freilich will in uns das Fleisch und Blut
14. Aria (Bass): Komm, susses Kreuz, so will ich sagen
15. Recitative - Evangelist: Und da sie an die Statte kamen
16. Chorus: Der du den Tempel Gottes zerbricht
17. Recitative - Evangelist: Desgleichen auch die Hohenpriester
18. Chorus: Andern hat er geholfen
19. Recitative - Evangelist: Desgleichen schmaheten ihn auch die Morder
20. Recitative (Alto): Ach Golgatha!
21. Aria (Alto) with Chorus: Sehet, Jesus hat die Hand
22. Recitative - Evangelist, Jesus: Und von der sechsten Stunde an
23. Chorus: Der rufet dem Elias
24. Recitative -Evangelist: Und bald lief einer unter ihnen
25. Chorus: Halt! lass sehen
26. Recitative - Evangelist: Aber Jesus schriee abermal
27. Chorale: Wenn ich einmal soll scheiden
28. Recitative - Evangelist: Und siehe da, der Vorhang im Tempel zerriss
29. Chorus: Wahrlich, dieser ist Gottes Sohn gewesen
30. Recitative - Evangelist: Und es waren viel Weiber da
31. Recitative (Bass): Am Abend, da es kuhle war
32. Aria (Bass): Mache dich, mein Herze, rein
33. Recitative - Evangelist: Und Joseph nahm den Leib
34. Chorus: Herr, wir haben gedacht
35. Recitative - Evangelist, Pilate: Pilatus sprach zu ihnen
36. Recitative (Bass, Tenor, Alto, Soprano, Chorus): Nun ist der Herr zur Ruh geb...
37. Chorus: Wir setzen uns mit Tranen nieder
Total 52.57

Лог создания рипа:

Exact Audio Copy V1.0 beta 3 from 29. August 2011
Отчёт EAC об извлечении, выполненном 24. июня 2015, 16:32
Stephen Cleobury / Bach - Mattheus Passion
Дисковод: Optiarc DVD RW AD-7260S Adapter: 0 ID: 1
Режим чтения : Достоверность
Использование точного потока : Да
Отключение кэша аудио : Да
Использование указателей C2 : Нет
Коррекция смещения при чтении : 48
Способность читать области Lead-in и Lead-out : Нет
Заполнение пропущенных сэмплов тишиной : Да
Удаление блоков с тишиной в начале и конце : Нет
При вычислениях CRC использовались нулевые сэмплы : Да
Интерфейс : Встроенный Win32-интерфейс для Win NT/2000
Выходной формат : Пользовательский кодировщик
Выбранный битрейт : 896 kBit/s
Качество : Высокий
Добавление ID3-тега : Нет
Утилита сжатия : C:\Program Files\FLAC Frontend\tools\flac.exe
Дополнительные параметры : -V -8 -T "Date=%year%" -T "Genre=%genre%" %source%
TOC извлечённого CD
Трек | Старт | Длительность | Начальный сектор | Конечный сектор
---------------------------------------------------------------------
1 | 0:00.00 | 0:04.65 | 0 | 364
2 | 0:04.65 | 0:19.40 | 365 | 1829
3 | 0:24.30 | 0:28.13 | 1830 | 3942
4 | 0:52.43 | 0:43.72 | 3943 | 7239
5 | 1:36.40 | 0:22.58 | 7240 | 8947
6 | 1:59.23 | 0:57.55 | 8948 | 13277
7 | 2:57.03 | 6:50.15 | 13278 | 44042
8 | 9:47.18 | 0:41.55 | 44043 | 47172
9 | 10:28.73 | 0:10.62 | 47173 | 47984
10 | 10:39.60 | 0:11.55 | 47985 | 48864
11 | 10:51.40 | 1:56.48 | 48865 | 57612
12 | 12:48.13 | 0:55.55 | 57613 | 61792
13 | 13:43.68 | 0:33.57 | 61793 | 64324
14 | 14:17.50 | 5:19.18 | 64325 | 88267
15 | 19:36.68 | 1:51.55 | 88268 | 96647
16 | 21:28.48 | 0:30.32 | 96648 | 98929
17 | 21:59.05 | 0:09.08 | 98930 | 99612
18 | 22:08.13 | 0:56.52 | 99613 | 103864
19 | 23:04.65 | 0:14.05 | 103865 | 104919
20 | 23:18.70 | 1:25.05 | 104920 | 111299
21 | 24:44.00 | 3:22.53 | 111300 | 126502
22 | 28:06.53 | 1:21.25 | 126503 | 132602
23 | 29:28.03 | 0:04.32 | 132603 | 132934
24 | 29:32.35 | 0:17.53 | 132935 | 134262
25 | 29:50.13 | 0:07.55 | 134263 | 134842
26 | 29:57.68 | 0:32.47 | 134843 | 137289
27 | 30:30.40 | 1:13.00 | 137290 | 142764
28 | 31:43.40 | 1:08.33 | 142765 | 147897
29 | 32:51.73 | 0:19.10 | 147898 | 149332
30 | 33:11.08 | 1:20.70 | 149333 | 155402
31 | 34:32.03 | 1:59.30 | 155403 | 164357
32 | 36:31.33 | 6:19.55 | 164358 | 192837
33 | 42:51.13 | 1:02.20 | 192838 | 197507
34 | 43:53.33 | 0:59.20 | 197508 | 201952
35 | 44:52.53 | 0:38.37 | 201953 | 204839
36 | 45:31.15 | 1:53.33 | 204840 | 213347
37 | 47:24.48 | 5:32.42 | 213348 | 238289
Характеристики диапазона извлечения и сообщения об ошибках
Выбранный диапазон
Имя файла D:\EAC\Мои раздачи\Bach - Matthaus-Passion - Cleobury\CD3\Stephen Cleobury - Bach - Mattheus Passion.wav
Пиковый уровень 97.9 %
Скорость извлечения 3.9 X
Качество диапазона 100.0 %
CRC теста EAEA8BAC
CRC копии EAEA8BAC
Копирование... OK
Ошибок не произошло
AccurateRip: сводка
Трек 1 отсутствует в базе данных
Трек 2 точность не определена (достоверность 4) [E91B3214], AccurateRip вернул [C11A6BE9] (AR v2)
Трек 3 точность не определена (достоверность 4) [F7077D7C], AccurateRip вернул [0246FCE1] (AR v2)
Трек 4 точность не определена (достоверность 4) [5FB5B371], AccurateRip вернул [AFFBA401] (AR v2)
Трек 5 точность не определена (достоверность 4) [0C6720CB], AccurateRip вернул [7FE96A19] (AR v2)
Трек 6 точность не определена (достоверность 4) [3C8EEA13], AccurateRip вернул [CA3B9C1C] (AR v2)
Трек 7 точность не определена (достоверность 4) [7CB7C2A1], AccurateRip вернул [0D3501C7] (AR v2)
Трек 8 точность не определена (достоверность 4) [B9CCE0E1], AccurateRip вернул [460307BC] (AR v2)
Трек 9 точность не определена (достоверность 4) [E2AD3D17], AccurateRip вернул [636213FA] (AR v2)
Трек 10 точность не определена (достоверность 4) [D238686A], AccurateRip вернул [CA8E8EB7] (AR v2)
Трек 11 точность не определена (достоверность 4) [93919C40], AccurateRip вернул [6816DD9F] (AR v2)
Трек 12 точность не определена (достоверность 4) [CCB9D383], AccurateRip вернул [049321E9] (AR v2)
Трек 13 точность не определена (достоверность 4) [BE5050E0], AccurateRip вернул [5B1E93D9] (AR v2)
Трек 14 точность не определена (достоверность 4) [AF4177EF], AccurateRip вернул [FE35453F] (AR v2)
Трек 15 точность не определена (достоверность 4) [1BBECFF7], AccurateRip вернул [5B501EF0] (AR v2)
Трек 16 точность не определена (достоверность 4) [EA5931BF], AccurateRip вернул [BE045FD4] (AR v2)
Трек 17 точность не определена (достоверность 4) [3C2BBF8E], AccurateRip вернул [31635DAC] (AR v2)
Трек 18 точность не определена (достоверность 4) [B529349C], AccurateRip вернул [8EC578A6] (AR v2)
Трек 19 точность не определена (достоверность 4) [8D3C4730], AccurateRip вернул [BA4CD724] (AR v2)
Трек 20 точность не определена (достоверность 4) [7BFA3989], AccurateRip вернул [394DD777] (AR v2)
Трек 21 точность не определена (достоверность 4) [6FBA44B3], AccurateRip вернул [21932C03] (AR v2)
Трек 22 точность не определена (достоверность 4) [6F93C4ED], AccurateRip вернул [3DA3E3E7] (AR v2)
Трек 23 отсутствует в базе данных
Трек 24 точность не определена (достоверность 4) [4D9C9846], AccurateRip вернул [499B0ABA] (AR v2)
Трек 25 точность не определена (достоверность 4) [4896FCCF], AccurateRip вернул [146B6BBE] (AR v2)
Трек 26 точность не определена (достоверность 4) [A48FFAB9], AccurateRip вернул [DE4EAF75] (AR v2)
Трек 27 точность не определена (достоверность 4) [F9D68BA3], AccurateRip вернул [36EDBE11] (AR v2)
Трек 28 точность не определена (достоверность 4) [7D956A4F], AccurateRip вернул [A457ED38] (AR v2)
Трек 29 точность не определена (достоверность 4) [7FF02390], AccurateRip вернул [26B29115] (AR v2)
Трек 30 точность не определена (достоверность 4) [517BBD25], AccurateRip вернул [DC2AEF2C] (AR v2)
Трек 31 точность не определена (достоверность 4) [38E1DDD1], AccurateRip вернул [B0A8390B] (AR v2)
Трек 32 точность не определена (достоверность 4) [BEBF04AF], AccurateRip вернул [AF2D9969] (AR v2)
Трек 33 точность не определена (достоверность 4) [7B7BC570], AccurateRip вернул [D7E6D2BA] (AR v2)
Трек 34 точность не определена (достоверность 4) [1DAB0605], AccurateRip вернул [A4D2499F] (AR v2)
Трек 35 точность не определена (достоверность 4) [89B28766], AccurateRip вернул [8803DC41] (AR v2)
Трек 36 точность не определена (достоверность 4) [75763A05], AccurateRip вернул [FED7420E] (AR v2)
Трек 37 точность не определена (достоверность 4) [057ADC5D], AccurateRip вернул [C41FFEFF] (AR v2)
35 трек(и) не удалось проверить на точность
2 трек(и) не содержатся в базе AccurateRip
Ни один трек не прошёл проверки на точность
В вашей базе может быть иной вариант штамповки диска
Конец отчёта
==== Контрольная сумма отчёта 304291C2BE1F3E02B67983109166FB7831C38397708757A600B1D1643769294A ====

Исполнители:

Rogers Covey-Cramp, Michael George, Emma Kirkby, Michael Chance, Martyn Hill, David Thomas
Choir of Jesus College, Cambridge
Choir of King's College, Cambridge
The Brandenburg Consort, Roy Goodman
Stephen Cleobury
[teatrix.ru].t7846.torrent 
Торрент: Зарегистрирован [ 2015-10-14 02:42 ] · 6F45949B8D18B3109E4EED32583C02E1ED0EB87E

Скачать .torrent

Скачать

15 KB

Статус: проверено
Скачан: 0 раз
Размер: 690 MB
terms.php



Быстрый ответ

Имя:

      
Для отправки сообщений необходимо включить JavaScript
Показать сообщения:    

Текущее время: 08-Дек 09:03

Часовой пояс: UTC + 3


Вы можете начинать темы
Вы можете отвечать на сообщения
Вы не можете редактировать свои сообщения
Вы не можете удалять свои сообщения
Вы не можете голосовать в опросах
Вы не можете прикреплять файлы к сообщениям
Вы можете скачивать файлы