(Sacred) Gioachino Rossini - Petite Messe Solennelle / Джоаккино Россини - Маленькая торжественная месса (Michel Corboz; Cecilia Gasdia, Bernarda Fink, Francesco Ellero d'Artegna, Vincenzo la Scola), 1987 / 1989, APE (image+.cue), lossless


Статистика раздачи [Обновить пиров]
Размер:  220 MB   |    Зарегистрирован:  1 год 1 месяц   |    Скачан:  0 раз

Полного источника не было: Никогда

 
   
 
 
 

[Цитировать]

Gioachino Rossini - Petite Messe Solennelle / Джоаккино Россини - Маленькая торжественная месса (Michel Corboz; Cecilia Gasdia, Bernarda Fink, Francesco Ellero d'Artegna, Vincenzo la Scola)
Жанр: Sacred
Страна-производитель диска:
Год издания диска: 1989
Издатель (лейбл): Erato
Дата записи: 1987
Аудиокодек: APE
Тип рипа: image+.cue
Битрейт аудио: lossless
Продолжительность: 72:10
Источник: релизер (matthaus)
Исполнители:
Cecilia Gasdia, soprano,
Bernarda Fink, contralto,
Francesco Ellero d'Artegna, bass,
Vincenzo la Scola, tenor.
Ensemble Vocal de Lausanne,
Michel Corboz, Condctor.
Recorded on May, 1987 at the Grande Salle d'Epalinges.

Содержание индексной карты

PERFORMER "Gioachino Rossini"
TITLE "Petite Messe Solennelle (Ensemble Vocal de Lausanne feat. conductor: Michel Corboz, soprano: Cecilia Gasdia, contralto: Bernarda Fink, tenor: Vincenzo La Scola, bass: Francesco Ellero D'Artegna)"
CATALOG 685738294329
REM DATE 2002
REM DISCNUMBER 1
REM TOTALDISCS 1
FILE "CDImage.ape" WAVE
TRACK 01 AUDIO
PERFORMER "Gioachino Rossini"
TITLE "Kyrie - Christe"
INDEX 01 00:00:00
TRACK 02 AUDIO
PERFORMER "Gioachino Rossini"
TITLE "Gloria - Laudamus te"
INDEX 00 05:22:15
INDEX 01 05:24:55
TRACK 03 AUDIO
PERFORMER "Gioachino Rossini"
TITLE "Gratias"
INDEX 00 07:41:38
INDEX 01 07:43:20
TRACK 04 AUDIO
PERFORMER "Gioachino Rossini"
TITLE "Domine Deus"
INDEX 00 11:28:15
INDEX 01 11:30:48
TRACK 05 AUDIO
PERFORMER "Gioachino Rossini"
TITLE "Qui tollis"
INDEX 00 17:11:23
INDEX 01 17:13:03
TRACK 06 AUDIO
PERFORMER "Gioachino Rossini"
TITLE "Quoniam"
INDEX 00 22:55:10
INDEX 01 22:56:33
TRACK 07 AUDIO
PERFORMER "Gioachino Rossini"
TITLE "Cum Sancto Spiritu"
INDEX 00 30:02:10
INDEX 01 30:02:60
TRACK 08 AUDIO
PERFORMER "Gioachino Rossini"
TITLE "Credo"
INDEX 00 35:29:05
INDEX 01 35:32:53
TRACK 09 AUDIO
PERFORMER "Gioachino Rossini"
TITLE "Crucifixus"
INDEX 00 39:40:28
INDEX 01 39:44:10
TRACK 10 AUDIO
PERFORMER "Gioachino Rossini"
TITLE "Et resurrexit"
INDEX 00 42:41:05
INDEX 01 42:43:08
TRACK 11 AUDIO
PERFORMER "Gioachino Rossini"
TITLE "Preludio religioso"
INDEX 00 51:07:63
INDEX 01 51:11:15
TRACK 12 AUDIO
PERFORMER "Gioachino Rossini"
TITLE "Ritornello - Sanctus"
INDEX 00 57:26:25
INDEX 01 57:27:10
TRACK 13 AUDIO
PERFORMER "Gioachino Rossini"
TITLE "O Salutaris"
INDEX 00 60:12:33
INDEX 01 60:14:03
TRACK 14 AUDIO
PERFORMER "Gioachino Rossini"
TITLE "Agnus Dei"
INDEX 00 64:56:13
INDEX 01 64:57:63

Треклист

1. Kyrie eleison - Christe eleison [06:45];
2. Gloria in excelsis Deo [02:40];
3. Gratias agimus tibi [04:47];
4. Domine Deus [05:17];
5. Qui tollis peccata mundi [06:55];
6. Quoniam tu solus sanctus [07:19];
7. Cum Sancto Spiritu [05:33];
8. Credo in unum Deum [03:58];
9. Crucifixus etiam pro nobis [05:15];
10. Et resurrexit [08:54];
11. Preludio religioso [08:36];
12. Sanctus [03:55];
13. O salutaris hostia [06:05];
14. Agnus Dei [07:45].

Отчет AudioChecker

AUDIOCHECKER v2.0 beta (build 457) - by Dester - opdester@freemail.hu
~~~~~~~~~~~~~~~~~~~~~~~~~~~~~~~~~~
Started at: вторник, 23. 06. 2015. - 3:32.06
1 file found
1 -===- C:\Users\Sony\Downloads\Audio - Rossini - Petite Messe Solennelle - Corboz (1987)\CDImage.ape
Extracted successfully
Conclusion: this track is CDDA with probability 99%
Tempfile successfully deleted.
Finished at: вторник, 23. 06. 2015. - 3:40.59 (operation time: 0:08.53)
[teatrix.ru].t7847.torrent 
Торрент: Зарегистрирован [ 2015-10-14 02:42 ] · A14C998893B9DFB68EF573557C671DC150141FDC

Скачать .torrent

Скачать

18 KB

Статус: проверено
Скачан: 0 раз
Размер: 220 MB
terms.php



Быстрый ответ

Имя:

      
Для отправки сообщений необходимо включить JavaScript
Показать сообщения:    

Текущее время: 02-Дек 23:11

Часовой пояс: UTC + 3


Вы можете начинать темы
Вы можете отвечать на сообщения
Вы не можете редактировать свои сообщения
Вы не можете удалять свои сообщения
Вы не можете голосовать в опросах
Вы не можете прикреплять файлы к сообщениям
Вы можете скачивать файлы