(Sacred, Mass) Джоаккино Россини / Gioachino Rossini - Stabat Mater / Россини (I Solisti Veneti, Claudio Scimone; The Ambrosian Singers; Cecilia Gasdia, Margarita Zimmermann, Chris Merritt, Jose Garcia), 1988 - studio recording / 2007, APE (image+.cu


Статистика раздачи [Обновить пиров]
Размер:  221 MB   |    Зарегистрирован:  1 год 1 месяц   |    Скачан:  1 раз

Полного источника не было: 1 месяц 16 дней

 
   
 
 
 

[Цитировать]

Gioachino Rossini - Stabat Mater / Джоаккино Россини - Stabat Mater (I Solisti Veneti, Claudio Scimone; The Ambrosian Singers; Cecilia Gasdia, Margarita Zimmermann, Chris Merritt, Jose Garcia)
Жанр: Sacred, Mass
Страна-производитель диска:
Год издания диска: 2007
Издатель (лейбл): Erato, Warner Classics
Дата записи: 1988
Аудиокодек: APE
Тип рипа: image+.cue
Битрейт аудио: lossless
Продолжительность: 55:11
Источник: релизер (matthaus)
Исполнители:
Cecilia Gasdia, soprano,
Margarita Zimmermann, mezzo-soprano,
Chris Merritt, tenor,
Jose Garcia, bass.
The Ambrosian Singers,
I Solisti Veneti,
Claudio Scimone, Conductor.

Треклист

1. Stabat mater dolorosa (Introduction)
2. Cujus animam gementem
3. Quis est homo
4. Pro peccatis suae gentis
5. Eja, mater, fons amoris
6. Sancta mater, istud agas
7. Fac, ut portem Christi mortem
8. Inflammatus et accensus
9. Quando corpus morietur
10. Amen. In sempiterna saecula

Содержание индексной карты (.CUE)

PERFORMER "Rossini; I Solisti Veneti, Claudio Scimone"TITLE "Stabat Mater"CATALOG 745099581022REM DATE 1994REM DISCNUMBER 1REM TOTALDISCS 1FILE "CDImage.ape" WAVE TRACK 01 AUDIO PERFORMER "Gioachino Rossini" TITLE "Stabat Mater: I. Introduzione 'Stabat Mater dolorosa'" INDEX 01 00:00:00 TRACK 02 AUDIO PERFORMER "Gioachino Rossini" TITLE "Stabat Mater: II. Aria 'Cujus animam gementem'" INDEX 01 08:55:72 TRACK 03 AUDIO PERFORMER "Gioachino Rossini" TITLE "Stabat Mater: III. Duetto 'Quis est homo, qui non fleret'" INDEX 01 14:35:05 TRACK 04 AUDIO PERFORMER "Gioachino Rossini" TITLE "Stabat Mater: IV. Aria 'Pro peccatis suae gentis'" INDEX 01 20:37:12 TRACK 05 AUDIO PERFORMER "Gioachino Rossini" TITLE "Stabat Mater: V. Coro e Recitativo 'Eja Mater, fons amoris'" INDEX 01 24:41:40 TRACK 06 AUDIO PERFORMER "Gioachino Rossini" TITLE "Stabat Mater: VI. Quartetto 'Sancta Mater, istud agas'" INDEX 01 28:54:42 TRACK 07 AUDIO PERFORMER "Gioachino Rossini" TITLE "Stabat Mater: VII. Cavatina 'Fac, ut portem Christi mortem'" INDEX 01 34:54:65 TRACK 08 AUDIO PERFORMER "Gioachino Rossini" TITLE "Stabat Mater: VIII. Aria e Coro 'Inflammatus et accensus'" INDEX 01 39:41:37 TRACK 09 AUDIO PERFORMER "Gioachino Rossini" TITLE "Stabat Mater: IX. Quartetto 'Quando corpus morietur'" INDEX 01 43:21:60 TRACK 10 AUDIO PERFORMER "Gioachino Rossini" TITLE "Stabat Mater: X. Finale 'In sempiterna saecula. Amen'" INDEX 01 49:09:57

Отчет AudioChecker

AUDIOCHECKER v2.0 beta (build 457) - by Dester - opdester@freemail.hu
~~~~~~~~~~~~~~~~~~~~~~~~~~~~~~~~~~
Started at: вторник, 23. 06. 2015. - 3:50.18
1 file found
1 -===- C:\Users\Sony\Downloads\Audio - Rossini - Stabat Mater (Scimone; Gasdia, Zimmermann, Merritt)\CDImage.ape
Extracted successfully
Conclusion: this track is CDDA with probability 100%
Tempfile successfully deleted.
[teatrix.ru].t7848.torrent 
Торрент: Зарегистрирован [ 2015-10-14 02:42 ] · 9D4182844135707476BAE7A7FF5751B85181933F

Скачать .torrent

Скачать

18 KB

Статус: проверено
Скачан: 1 раз
Размер: 221 MB
terms.php



Быстрый ответ

Имя:

      
Для отправки сообщений необходимо включить JavaScript
Показать сообщения:    

Текущее время: 09-Дек 14:41

Часовой пояс: UTC + 3


Вы можете начинать темы
Вы можете отвечать на сообщения
Вы не можете редактировать свои сообщения
Вы не можете удалять свои сообщения
Вы не можете голосовать в опросах
Вы не можете прикреплять файлы к сообщениям
Вы можете скачивать файлы