(Oratorio) George Frideric Handel - Messiah (Morison, Thomas, Lewis, Milligan, Huddersfield Choral Society, Royal Liverpool Philharmonic Orchestra, Malcolm Sargent) - 1990, FLAC (image+.cue) lossless


Статистика раздачи [Обновить пиров]
Размер:  715 MB   |    Зарегистрирован:  1 год 1 месяц   |    Скачан:  1 раз

Полного источника не было: 4 месяца 18 дней

 
   
 
 
 

[Цитировать]

George Frideric Handel - Messiah
Huddersfield Choral Society | Royal Liverpool Philharmonic Orchestra | Malcolm Sargent
Жанр: Oratorio
Страна-производитель диска: UK
Год издания диска: 1990
Издатель (лейбл): EMI
Номер по каталогу: CD-CFPD 4718
Дата записи: 1959
Аудиокодек: FLAC
Тип рипа: image+.cue
Битрейт аудио: lossless
Продолжительность: 2:24:23
Источник: собственный рип
Наличие сканов в содержимом раздачи: да
Исполнители:
Richard Lewis - tenor
James Milligan - bass
Elsie Morison - soprano
Marjorie Thomas - contralto
Huddersfield Choral Society Choir
Royal Liverpool Philharmonic Orchestra
Malcolm Sargent
- conductor

Треклист

CD 1
01.Overture 05:19
02.Comfort ye, My people 03:43
03.Every valley shall be exalted 03:40
04.And the glory of the Lord 03:23
05.Thus saith the Lord of Hosts 02:02
06.But who may abide 05:19
07.And He shall purify 02:44
08.Behold! A virgin shall conceive 00:33
09.O thou that tellest 07:00
10.For, behold, darkness shall cover the earth 03:06
11.The people that walked in darkness 05:03
12.For unto us a Child is born 04:44
13.Pastoral Symphony 04:41
14.There were shepherds abiding in the field 00:52
15.And the angel said unto them, Fear not 00:51
16.And suddenly there was with the angel 00:24
17.Glory to God 02:27
18.Rejoice Greatly, O daughter of Zion! 04:58
19.Then shall the eyes of the blind be opened 00:34
20.He shall feed his flock 06:32
21.His yoke is easy 02:35
CD 2
01.Behold the Lamb of God 03:43
02.He was despised and rejected of men 06:00
03.Surely He hath borne our griefs 02:33
04.And with His stripes we are healed 01:51
05.All we like sheep have gone astray 04:34
06.All they that see Him 00:51
07.He trusted in God 02:17
08.Thy rebuke hath broken His heart 01:58
09.Behold, and see if there be any sorrow 02:04
10.He was cut out of the land of the living 00:21
11.But thou didst not leave His soul in hell 02:17
12.Lift up your heads, O ye gates 03:36
13.The Lord gave the word 01:27
14.how beautiful are the feet 03:01
15.Their sound is gone out in to all lands 01:45
16.Why do the nations so furiously rage together 02:53
17.Let us break their bonds asunder 02:18
18.He that dwelleth in heaven 00:16
19.Thou sshalt break them with a rod of iron 02:05
20.Hallelujah! 04:45
21.I know that my Redeemer liveth 07:49
22.Since by man came death 02:21
23.Behold, I tell you a mystery 00:45
24.The trumpet shall sound 04:16
25.Worthy is the Lamb. Amen 07:44

Лог создания рипа

Лог создания рипа CD1

Exact Audio Copy V1.0 beta 2 from 29. April 2011
EAC extraction logfile from 18. April 2015, 16:24
Handel / Messiah (Disk 1)
Used drive : _NEC DVD_RW ND-3551A Adapter: 0 ID: 0
Read mode : Secure
Utilize accurate stream : Yes
Defeat audio cache : Yes
Make use of C2 pointers : No
Read offset correction : 48
Overread into Lead-In and Lead-Out : No
Fill up missing offset samples with silence : Yes
Delete leading and trailing silent blocks : No
Null samples used in CRC calculations : Yes
Used interface : Native Win32 interface for Win NT & 2000
Used output format : User Defined Encoder
Selected bitrate : 128 kBit/s
Quality : High
Add ID3 tag : No
Command line compressor : D:\Program Files\Exact Audio Copy\Flac\flac.exe
Additional command line options : -V -8 -T "Date=%year%" -T "Genre=%genre%" %source%
TOC of the extracted CD
Track | Start | Length | Start sector | End sector
---------------------------------------------------------
1 | 0:00.33 | 5:19.67 | 33 | 24024
2 | 5:20.25 | 3:43.70 | 24025 | 40819
3 | 9:04.20 | 3:40.55 | 40820 | 57374
4 | 12:45.00 | 3:23.65 | 57375 | 72664
5 | 16:08.65 | 2:02.13 | 72665 | 81827
6 | 18:11.03 | 5:19.32 | 81828 | 105784
7 | 23:30.35 | 2:44.23 | 105785 | 118107
8 | 26:14.58 | 0:33.55 | 118108 | 120637
9 | 26:48.38 | 7:00.10 | 120638 | 152147
10 | 33:48.48 | 3:07.00 | 152148 | 166172
11 | 36:55.48 | 5:03.17 | 166173 | 188914
12 | 41:58.65 | 4:44.33 | 188915 | 210247
13 | 46:43.23 | 4:41.62 | 210248 | 231384
14 | 51:25.10 | 0:52.68 | 231385 | 235352
15 | 52:18.03 | 0:51.35 | 235353 | 239212
16 | 53:09.38 | 0:24.22 | 239213 | 241034
17 | 53:33.60 | 2:27.65 | 241035 | 252124
18 | 56:01.50 | 4:58.73 | 252125 | 274547
19 | 61:00.48 | 0:34.40 | 274548 | 277137
20 | 61:35.13 | 6:32.67 | 277138 | 306604
21 | 68:08.05 | 2:35.68 | 306605 | 318297
Range status and errors
Selected range
Filename D:\Documents and Settings\Владимир\Мои документы\Handel - Messiah (CD1).wav
Peak level 86.5 %
Extraction speed 3.0 X
Range quality 99.9 %
Test CRC 1030EDDB
Copy CRC 1030EDDB
Copy OK
No errors occurred
AccurateRip summary
Track 1 accurately ripped (confidence 7) [4118B60C] (AR v2)
Track 2 accurately ripped (confidence 7) [4AE1A34D] (AR v2)
Track 3 accurately ripped (confidence 7) [A502B0E9] (AR v2)
Track 4 accurately ripped (confidence 7) [80A4B8A6] (AR v2)
Track 5 accurately ripped (confidence 7) [31FB9A8D] (AR v2)
Track 6 accurately ripped (confidence 7) [E62D6445] (AR v2)
Track 7 accurately ripped (confidence 7) [5FD6E7F5] (AR v2)
Track 8 accurately ripped (confidence 7) [503F1DBD] (AR v2)
Track 9 accurately ripped (confidence 7) [87AE43AD] (AR v2)
Track 10 accurately ripped (confidence 7) [346A18F0] (AR v2)
Track 11 accurately ripped (confidence 7) [2B3AE732] (AR v2)
Track 12 accurately ripped (confidence 7) [C23599FA] (AR v2)
Track 13 accurately ripped (confidence 7) [8197945C] (AR v2)
Track 14 accurately ripped (confidence 7) [F78416AB] (AR v2)
Track 15 accurately ripped (confidence 7) [22889C65] (AR v2)
Track 16 accurately ripped (confidence 7) [9C3BD599] (AR v2)
Track 17 accurately ripped (confidence 7) [F5792A6F] (AR v2)
Track 18 accurately ripped (confidence 6) [79A0A19F] (AR v2)
Track 19 accurately ripped (confidence 6) [E74E08D4] (AR v2)
Track 20 accurately ripped (confidence 6) [9FF75E20] (AR v2)
Track 21 accurately ripped (confidence 6) [0D743324] (AR v2)
All tracks accurately ripped
End of status report
==== Log checksum E14F95099EBB2D4A0ACC32C72D8D3E6F87FC022A809A1F1636301177F8AC9678 ====

Лог создания рипа CD2

Exact Audio Copy V1.0 beta 2 from 29. April 2011
EAC extraction logfile from 18. April 2015, 18:23
Handel / Messiah CD2
Used drive : _NEC DVD_RW ND-3551A Adapter: 0 ID: 0
Read mode : Secure
Utilize accurate stream : Yes
Defeat audio cache : Yes
Make use of C2 pointers : No
Read offset correction : 48
Overread into Lead-In and Lead-Out : No
Fill up missing offset samples with silence : Yes
Delete leading and trailing silent blocks : No
Null samples used in CRC calculations : Yes
Used interface : Native Win32 interface for Win NT & 2000
Used output format : User Defined Encoder
Selected bitrate : 128 kBit/s
Quality : High
Add ID3 tag : No
Command line compressor : D:\Program Files\Exact Audio Copy\Flac\flac.exe
Additional command line options : -V -8 -T "Date=%year%" -T "Genre=%genre%" %source%
TOC of the extracted CD
Track | Start | Length | Start sector | End sector
---------------------------------------------------------
1 | 0:00.33 | 3:43.07 | 33 | 16764
2 | 3:43.40 | 6:00.00 | 16765 | 43764
3 | 9:43.40 | 2:33.18 | 43765 | 55257
4 | 12:16.58 | 1:51.52 | 55258 | 63634
5 | 14:08.35 | 4:34.55 | 63635 | 84239
6 | 18:43.15 | 0:51.13 | 84240 | 88077
7 | 19:34.28 | 2:17.27 | 88078 | 98379
8 | 21:51.55 | 1:58.38 | 98380 | 107267
9 | 23:50.18 | 2:04.20 | 107268 | 116587
10 | 25:54.38 | 0:21.10 | 116588 | 118172
11 | 26:15.48 | 2:17.50 | 118173 | 128497
12 | 28:33.23 | 3:36.30 | 128498 | 144727
13 | 32:09.53 | 1:27.35 | 144728 | 151287
14 | 33:37.13 | 3:01.10 | 151288 | 164872
15 | 36:38.23 | 1:45.12 | 164873 | 172759
16 | 38:23.35 | 2:53.08 | 172760 | 185742
17 | 41:16.43 | 2:18.07 | 185743 | 196099
18 | 43:34.50 | 0:16.73 | 196100 | 197372
19 | 43:51.48 | 2:05.35 | 197373 | 206782
20 | 45:57.08 | 4:45.62 | 206783 | 228219
21 | 50:42.70 | 7:49.20 | 228220 | 263414
22 | 58:32.15 | 2:21.28 | 263415 | 274017
23 | 60:53.43 | 0:45.42 | 274018 | 277434
24 | 61:39.10 | 4:16.73 | 277435 | 296707
25 | 65:56.08 | 7:44.32 | 296708 | 331539
Range status and errors
Selected range
Filename D:\Documents and Settings\Владимир\Мои документы\Handel - Messiah (CD2).wav
Peak level 98.0 %
Extraction speed 3.1 X
Range quality 100.0 %
Test CRC 58FA95A1
Copy CRC 58FA95A1
Copy OK
No errors occurred
AccurateRip summary
Track 1 not present in database
Track 2 not present in database
Track 3 not present in database
Track 4 not present in database
Track 5 not present in database
Track 6 not present in database
Track 7 not present in database
Track 8 not present in database
Track 9 not present in database
Track 10 not present in database
Track 11 not present in database
Track 12 not present in database
Track 13 not present in database
Track 14 not present in database
Track 15 not present in database
Track 16 not present in database
Track 17 not present in database
Track 18 not present in database
Track 19 not present in database
Track 20 not present in database
Track 21 not present in database
Track 22 not present in database
Track 23 not present in database
Track 24 not present in database
Track 25 not present in database
None of the tracks are present in the AccurateRip database
End of status report
==== Log checksum 53A27F5D35D05C4F5B90ED41B90FFFC05821B3D13C0713B135A359594E406198 ====
[teatrix.ru].t7849.torrent 
Торрент: Зарегистрирован [ 2015-10-14 02:42 ] · 216EF586BE4D9FD35CDDCCFE1950B0B29C464373

Скачать .torrent

Скачать

15 KB

Статус: проверено
Скачан: 1 раз
Размер: 715 MB
terms.php



Быстрый ответ

Имя:

      
Для отправки сообщений необходимо включить JavaScript
Показать сообщения:    

Текущее время: 11-Дек 03:18

Часовой пояс: UTC + 3


Вы можете начинать темы
Вы можете отвечать на сообщения
Вы не можете редактировать свои сообщения
Вы не можете удалять свои сообщения
Вы не можете голосовать в опросах
Вы не можете прикреплять файлы к сообщениям
Вы можете скачивать файлы