(Oratorio) Mayr - Sisara (Barkowski, Or, Braun, van der Mieden, Schneider - Simon Mayr Choir / Accademia I Filarmonici di Verona, Hauk) - 2004, APE (image+.cue) lossless


Статистика раздачи [Обновить пиров]
Размер:  387 MB   |    Зарегистрирован:  1 год 1 месяц   |    Скачан:  0 раз

Полного источника не было: Никогда

 
   
 
 
 

[Цитировать]

Johann Simon Mayr - Sisara
Sisara was written in 1793, for the Ospedale dei Mendicanti, one of the four music conservatories in Venice concerned with orphans, so Mayr restricted himself to just female voices.
Жанр: Oratorio
Страна-производитель диска: Switzerland
Год издания диска: 2004
Издатель (лейбл): Guild
Номер по каталогу: GMCD7288/9
Дата записи: 2004
Аудиокодек: APE
Тип рипа: image+.cue
Битрейт аудио: lossless
Продолжительность: 48'44+44'52
Источник: скачано с
Наличие сканов в содержимом раздачи: да
Треклист:
Треклист:

CD1

1. Part 1. Sinfonia
2. Part 1. Introduzione. Trementes pallentes
3. Part 1. Recitativo. Qualis timor in vobis?
4. Part 1. Aria. Omnipotentis Dei
5. Part 1. Recitativo. Ad pugnam pergo
6. Part 1. Coro. Victoria, calmate
7. Part 1. Recitativo-Arioso. Iniqua ingrata sors
8. Part 1. Recitativo. Qualis sit locus iste?
9. Part 1. Cavatina. Dulces aurae rivi amici
10. Part 1. Recitativo. Jahel!...
11. Part 1. Aria. In te confido
12. Part 1. Recitativo. Quid agam?
13. Part 1. Recitativo-Arioso. Ne tardes Jahel: ad opus.
14. Part 1. Aria. Quercus annosa elata
15. Part 1. Recitativo. Lasso defatigato
16. Part 1. Duetto. Vas lacte repletum / Recitativo. Dona a vobis oblata
17. Part 1. Duetto. En terrae foecundae / Recitativo-Arioso. Quod portentum!
18. Part 1. Arioso-Aria. Ubi sum o dei potentes! / Aria. A motu celeri
19. Part 1. Recitativo. O virorum fortissime!
20. Part 1. Finale 1. Veni solare & ride

CD2

1. Part 2. Sinfonia
2. Recitativo. Quaeso puella
3. Part 2. Cavatina. Pacem spera suspiratam
4. Part 2. Recitativo. Amabilis irata
5. Part 2. Duetto. Resta o chare & me solare
6. Part 2. Recitativo. Quid actum sit?
7. Part 2. Aria. Ah cor tu non consola
8. Part 2. Recitativo. Adjuva aeterne Deus manum armatam
9. Part 2. Arioso. Quod silentium!
10. Part 2. Aria. Veni o chara ad me vicina
11. Part 2. Recitativo. Tam fortis vir pavescit?
12. Part 2. Duettino. Veni somne...
13. Part 2. Recitativo. Dormi perfide dormi
14. Part 2. Aria. Hostes fugati fremant
15. Part 2. Recitativo. Impera mulier tu quid vis
16. Part 2. Arioso. Ah quid dictis vos?
17. Part 2. Aria. Per te victoriae & pax
18. Part 2. Recitativo. Pergite mecum
19. Part 2. Finale 2. Vive immortale numen
Исполнители:
Johann Simon Mayr (1763–1845) - Sisara (1793)
Oratorio in 2 Acts
Sisara – Vanessa Barkowski (mezzo-soprano)
Jahel – Talia Or (soprano)
Debbora, Thamar – Stefanie Braun (soprano)
Barac, Elcana – Petra van der Mieden (soprano)
Abra, Dina – Claudia Schneider (soprano)
Simon Mayr Choir
Accademia I Filarmonici di Verona
Franz Hauk, conductor

Лог создания рипа

CD1

Exact Audio Copy V1.0 beta 3 from 29. August 2011
EAC extraction logfile from 21. February 2012, 15:00
Accademia I Filarmonici i Verona / Mayr- Sisara Disc 1
Used drive : PLDS BD-RE DH-8B2SH Adapter: 0 ID: 0
Read mode : Secure
Utilize accurate stream : Yes
Defeat audio cache : Yes
Make use of C2 pointers : No
Read offset correction : 6
Overread into Lead-In and Lead-Out : No
Fill up missing offset samples with silence : Yes
Delete leading and trailing silent blocks : No
Null samples used in CRC calculations : Yes
Used interface : Native Win32 interface for Win NT & 2000
Gap handling : Not detected, thus appended to previous track
Used output format : User Defined Encoder
Selected bitrate : 768 kBit/s
Quality : High
Add ID3 tag : No
Command line compressor : C:\Program Files (x86)\Exact Audio Copy\FLAC\FLAC.EXE
Additional command line options : -6 -V -T "ARTIST=%artist%" -T "TITLE=%title%" -T "ALBUM=%albumtitle%" -T "DATE=%year%" -T "TRACKNUMBER=%tracknr%" -T "GENRE=%genre%" -T "COMMENT=%comment%" -T "BAND=%albuminterpret%" -T "ALBUMARTIST=%albuminterpret%" -T "COMPOSER=%composer%" %haslyrics%--tag-from-file=LYRICS="%lyricsfile%"%haslyrics% -T "DISCNUMBER=%cdnumber%" -T "TOTALDISCS=%totalcds%" -T "TOTALTRACKS=%numtracks%" %hascover%--picture="%coverfile%"%hascover% %source% -o %dest%
TOC of the extracted CD
Track | Start | Length | Start sector | End sector
---------------------------------------------------------
1 | 0:00.00 | 4:36.20 | 0 | 20719
2 | 4:36.20 | 3:58.54 | 20720 | 38623
3 | 8:34.74 | 1:01.70 | 38624 | 43268
4 | 9:36.69 | 3:25.23 | 43269 | 58666
5 | 13:02.17 | 0:53.53 | 58667 | 62694
6 | 13:55.70 | 2:17.55 | 62695 | 73024
7 | 16:13.50 | 2:04.25 | 73025 | 82349
8 | 18:18.00 | 2:26.69 | 82350 | 93368
9 | 20:44.69 | 2:27.18 | 93369 | 104411
10 | 23:12.12 | 0:40.54 | 104412 | 107465
11 | 23:52.66 | 3:12.44 | 107466 | 121909
12 | 27:05.35 | 0:44.61 | 121910 | 125270
13 | 27:50.21 | 1:01.65 | 125271 | 129910
14 | 28:52.11 | 6:10.33 | 129911 | 157693
15 | 35:02.44 | 1:07.37 | 157694 | 162755
16 | 36:10.06 | 1:26.23 | 162756 | 169228
17 | 37:36.29 | 1:35.46 | 169229 | 176399
18 | 39:12.00 | 4:31.12 | 176400 | 196736
19 | 43:43.12 | 0:36.22 | 196737 | 199458
20 | 44:19.34 | 4:25.41 | 199459 | 219374
Track 1
Filename C:\EAC\Mayr- Sisara\Disc 1\01 Sinfonia.wav
Peak level 63.0 %
Extraction speed 2.0 X
Track quality 100.0 %
Test CRC 87A2A607
Copy CRC 87A2A607
Cannot be verified as accurate (confidence 1) [038BE9FA], AccurateRip returned [2ADC6D7E] (AR v2)
Copy OK
Track 2
Filename C:\EAC\Mayr- Sisara\Disc 1\02 Trementes pallentes (Coro, Soli).wav
Peak level 93.3 %
Extraction speed 1.6 X
Track quality 99.9 %
Test CRC 57AE6B0C
Copy CRC 57AE6B0C
Cannot be verified as accurate (confidence 1) [CC222F29], AccurateRip returned [F70409F8] (AR v2)
Copy OK
Track 3
Filename C:\EAC\Mayr- Sisara\Disc 1\03 Qualis timor vobis (Debbora,Jahel,Barac).wav
Peak level 42.7 %
Extraction speed 1.6 X
Track quality 100.0 %
Test CRC 68CFB8C2
Copy CRC 68CFB8C2
Cannot be verified as accurate (confidence 1) [5E0C76FE], AccurateRip returned [E69EBC2C] (AR v2)
Copy OK
Track 4
Filename C:\EAC\Mayr- Sisara\Disc 1\04 Omnipotentis Dei (Debborah).wav
Peak level 71.7 %
Extraction speed 2.4 X
Track quality 100.0 %
Test CRC 28F7C1FB
Copy CRC 28F7C1FB
Cannot be verified as accurate (confidence 1) [6C3C7AF2], AccurateRip returned [223DFF63] (AR v2)
Copy OK
Track 5
Filename C:\EAC\Mayr- Sisara\Disc 1\05 Ad pugnam pergo (Barac,Jahel, Debborah).wav
Peak level 71.9 %
Extraction speed 1.7 X
Track quality 100.0 %
Test CRC 7E2130C1
Copy CRC 7E2130C1
Cannot be verified as accurate (confidence 1) [8C2A0EC4], AccurateRip returned [0495D396] (AR v2)
Copy OK
Track 6
Filename C:\EAC\Mayr- Sisara\Disc 1\06 Victoria calmate (Coro,Soli).wav
Peak level 89.3 %
Extraction speed 2.3 X
Track quality 100.0 %
Test CRC 22560EA5
Copy CRC 22560EA5
Cannot be verified as accurate (confidence 1) [1D741B30], AccurateRip returned [C2C9A1A4] (AR v2)
Copy OK
Track 7
Filename C:\EAC\Mayr- Sisara\Disc 1\07 Iniqua ingrata sors (Sisara,Jahel).wav
Peak level 60.9 %
Extraction speed 2.4 X
Track quality 100.0 %
Test CRC E4E7D193
Copy CRC E4E7D193
Cannot be verified as accurate (confidence 1) [B5580EBF], AccurateRip returned [0A3413C4] (AR v2)
Copy OK
Track 8
Filename C:\EAC\Mayr- Sisara\Disc 1\08 Qualis sit locus iste (Sisara).wav
Peak level 27.9 %
Extraction speed 2.5 X
Track quality 100.0 %
Test CRC 43A67AB3
Copy CRC 43A67AB3
Cannot be verified as accurate (confidence 1) [A30153C4], AccurateRip returned [28DA85FB] (AR v2)
Copy OK
Track 9
Filename C:\EAC\Mayr- Sisara\Disc 1\09 Dulces aurae rivi amici (Sisara).wav
Peak level 85.5 %
Extraction speed 2.6 X
Track quality 100.0 %
Test CRC F4ABAF53
Copy CRC F4ABAF53
Cannot be verified as accurate (confidence 1) [78682022], AccurateRip returned [534D4B18] (AR v2)
Copy OK
Track 10
Filename C:\EAC\Mayr- Sisara\Disc 1\10 Jahel!... (Barac, Jahel).wav
Peak level 93.3 %
Extraction speed 1.7 X
Track quality 100.0 %
Test CRC A4B42AA9
Copy CRC A4B42AA9
Cannot be verified as accurate (confidence 1) [964C92D0], AccurateRip returned [94504332] (AR v2)
Copy OK
Track 11
Filename C:\EAC\Mayr- Sisara\Disc 1\11 In te confido (Barac).wav
Peak level 91.1 %
Extraction speed 2.9 X
Track quality 100.0 %
Test CRC 6DE4052C
Copy CRC 6DE4052C
Cannot be verified as accurate (confidence 1) [268971B5], AccurateRip returned [EC264A87] (AR v2)
Copy OK
Track 12
Filename C:\EAC\Mayr- Sisara\Disc 1\12 Quid agam (Jahel,Sisara).wav
Peak level 28.5 %
Extraction speed 0.9 X
Track quality 99.7 %
Test CRC D1EE57FF
Copy CRC D1EE57FF
Cannot be verified as accurate (confidence 1) [8BED5CD3], AccurateRip returned [B388535B] (AR v2)
Copy OK
Track 13
Filename C:\EAC\Mayr- Sisara\Disc 1\13 Ne tardes Jahel- ad opus (Jahel).wav
Peak level 54.0 %
Extraction speed 2.2 X
Track quality 100.0 %
Test CRC AC785535
Copy CRC AC785535
Cannot be verified as accurate (confidence 1) [82764A58], AccurateRip returned [91EDC13C] (AR v2)
Copy OK
Track 14
Filename C:\EAC\Mayr- Sisara\Disc 1\14 Quercus annosa elata (Jahel).wav
Peak level 91.7 %
Extraction speed 3.4 X
Track quality 100.0 %
Test CRC 687C9FD2
Copy CRC 687C9FD2
Cannot be verified as accurate (confidence 1) [C219613C], AccurateRip returned [A31696BC] (AR v2)
Copy OK
Track 15
Filename C:\EAC\Mayr- Sisara\Disc 1\15 Lasso defatigato (Sisara,Dina, Elcana).wav
Peak level 22.3 %
Extraction speed 2.5 X
Track quality 100.0 %
Test CRC F19DE05D
Copy CRC F19DE05D
Cannot be verified as accurate (confidence 1) [7AFF82D7], AccurateRip returned [082B330D] (AR v2)
Copy OK
Track 16
Filename C:\EAC\Mayr- Sisara\Disc 1\16 Vas lacte repletum (Dina,Elcana) Dona a vobis oblata (Sisara, Thamar,Abra).wav
Peak level 93.3 %
Extraction speed 1.5 X
Track quality 99.8 %
Test CRC BC180C4D
Copy CRC BC180C4D
Cannot be verified as accurate (confidence 1) [D6AF0503], AccurateRip returned [8DD1FDA6] (AR v2)
Copy OK
Track 17
Filename C:\EAC\Mayr- Sisara\Disc 1\17 En terrae foecundae (Thamat, Abra) Quod portentum! (Sisara).wav
Peak level 57.7 %
Extraction speed 1.6 X
Track quality 99.8 %
Test CRC 01E2C83D
Copy CRC 01E2C83D
Cannot be verified as accurate (confidence 1) [EE8DDA9C], AccurateRip returned [6913EDDF] (AR v2)
Copy OK
Track 18
Filename C:\EAC\Mayr- Sisara\Disc 1\18 Ubi sum o dei potentes (Sisara) O moti celeri.wav
Peak level 93.3 %
Extraction speed 3.6 X
Track quality 100.0 %
Test CRC 4BC2A75C
Copy CRC 4BC2A75C
Cannot be verified as accurate (confidence 1) [E20E81F2], AccurateRip returned [418D676F] (AR v2)
Copy OK
Track 19
Filename C:\EAC\Mayr- Sisara\Disc 1\19 O virorum fortissme! (Jahel).wav
Peak level 21.6 %
Extraction speed 2.0 X
Track quality 100.0 %
Test CRC 043A132F
Copy CRC 043A132F
Cannot be verified as accurate (confidence 1) [C874D107], AccurateRip returned [7280445A] (AR v2)
Copy OK
Track 20
Filename C:\EAC\Mayr- Sisara\Disc 1\20 Veni solare & ride (Jahel,Sisara,Thamar,Dina).wav
Peak level 63.9 %
Extraction speed 3.7 X
Track quality 100.0 %
Test CRC 45209263
Copy CRC 45209263
Cannot be verified as accurate (confidence 1) [C9664275], AccurateRip returned [02D2B45F] (AR v2)
Copy OK
No tracks could be verified as accurate
You may have a different pressing from the one(s) in the database
No errors occurred
End of status report

CD2

Exact Audio Copy V1.0 beta 3 from 29. August 2011
EAC extraction logfile from 21. February 2012, 16:02
Accademia I Filaemonici di Verona / Mayr: Sisara Disc 2
Used drive : PLDS BD-RE DH-8B2SH Adapter: 0 ID: 0
Read mode : Secure
Utilize accurate stream : Yes
Defeat audio cache : Yes
Make use of C2 pointers : No
Read offset correction : 6
Overread into Lead-In and Lead-Out : No
Fill up missing offset samples with silence : Yes
Delete leading and trailing silent blocks : No
Null samples used in CRC calculations : Yes
Used interface : Native Win32 interface for Win NT & 2000
Gap handling : Not detected, thus appended to previous track
Used output format : User Defined Encoder
Selected bitrate : 768 kBit/s
Quality : High
Add ID3 tag : No
Command line compressor : C:\Program Files (x86)\Exact Audio Copy\FLAC\FLAC.EXE
Additional command line options : -6 -V -T "ARTIST=%artist%" -T "TITLE=%title%" -T "ALBUM=%albumtitle%" -T "DATE=%year%" -T "TRACKNUMBER=%tracknr%" -T "GENRE=%genre%" -T "COMMENT=%comment%" -T "BAND=%albuminterpret%" -T "ALBUMARTIST=%albuminterpret%" -T "COMPOSER=%composer%" %haslyrics%--tag-from-file=LYRICS="%lyricsfile%"%haslyrics% -T "DISCNUMBER=%cdnumber%" -T "TOTALDISCS=%totalcds%" -T "TOTALTRACKS=%numtracks%" %hascover%--picture="%coverfile%"%hascover% %source% -o %dest%
TOC of the extracted CD
Track | Start | Length | Start sector | End sector
---------------------------------------------------------
1 | 0:00.00 | 4:07.59 | 0 | 18583
2 | 4:07.59 | 0:50.72 | 18584 | 22405
3 | 4:58.56 | 1:59.60 | 22406 | 31390
4 | 6:58.41 | 1:46.02 | 31391 | 39342
5 | 8:44.43 | 5:02.15 | 39343 | 62007
6 | 13:46.58 | 0:37.30 | 62008 | 64812
7 | 14:24.13 | 3:24.12 | 64813 | 80124
8 | 17:48.25 | 0:31.47 | 80125 | 82496
9 | 18:19.72 | 4:33.31 | 82497 | 103002
10 | 22:53.28 | 4:02.36 | 103003 | 121188
11 | 26:55.64 | 0:37.59 | 121189 | 124022
12 | 27:33.48 | 2:18.74 | 124023 | 134446
13 | 29:52.47 | 1:18.00 | 134447 | 140296
14 | 31:10.47 | 2:43.09 | 140297 | 152530
15 | 33:53.56 | 0:29.51 | 152531 | 154756
16 | 34:23.32 | 0:58.47 | 154757 | 159153
17 | 35:22.04 | 2:06.38 | 159154 | 168641
18 | 37:28.42 | 3:21.50 | 168642 | 183766
19 | 40:50.17 | 4:02.45 | 183767 | 201961
Track 1
Filename C:\EAC\Mayr- Sisara\Disc 2\01 Sinfonia.wav
Peak level 41.8 %
Extraction speed 1.9 X
Track quality 100.0 %
Test CRC 3737259C
Copy CRC 3737259C
Cannot be verified as accurate (confidence 1) [02AC5178], AccurateRip returned [062C59FC] (AR v2)
Copy OK
Track 2
Filename C:\EAC\Mayr- Sisara\Disc 2\02 Quaeso puella (Sisara,Abra).wav
Peak level 93.3 %
Extraction speed 1.4 X
Track quality 100.0 %
Test CRC 9B3E97CC
Copy CRC 9B3E97CC
Cannot be verified as accurate (confidence 1) [6511AECD], AccurateRip returned [00AA5DD2] (AR v2)
Copy OK
Track 3
Filename C:\EAC\Mayr- Sisara\Disc 2\03 Pacem spera suspiratam (Abra).wav
Peak level 60.7 %
Extraction speed 1.9 X
Track quality 100.0 %
Test CRC 6E6BD1A3
Copy CRC 6E6BD1A3
Cannot be verified as accurate (confidence 1) [FA8AC15E], AccurateRip returned [CCB54067] (AR v2)
Copy OK
Track 4
Filename C:\EAC\Mayr- Sisara\Disc 2\04 Amabilis irata (Sisara,Jahel).wav
Peak level 52.6 %
Extraction speed 1.9 X
Track quality 100.0 %
Test CRC 4FD02A61
Copy CRC 4FD02A61
Cannot be verified as accurate (confidence 1) [E900FD8F], AccurateRip returned [24942BFF] (AR v2)
Copy OK
Track 5
Filename C:\EAC\Mayr- Sisara\Disc 2\05 Resta o chare & me solare (Sisara,Jahel).wav
Peak level 43.2 %
Extraction speed 2.5 X
Track quality 100.0 %
Test CRC 20739A0A
Copy CRC 20739A0A
Cannot be verified as accurate (confidence 1) [106753E6], AccurateRip returned [A3417D3F] (AR v2)
Copy OK
Track 6
Filename C:\EAC\Mayr- Sisara\Disc 2\06 Quid actum sit (Barac, Debbora).wav
Peak level 49.8 %
Extraction speed 1.4 X
Track quality 100.0 %
Test CRC ADEDB417
Copy CRC ADEDB417
Cannot be verified as accurate (confidence 1) [6914ACF7], AccurateRip returned [EA7CAD8A] (AR v2)
Copy OK
Track 7
Filename C:\EAC\Mayr- Sisara\Disc 2\07 Ah cor tu non consola (Barac).wav
Peak level 65.6 %
Extraction speed 1.8 X
Track quality 99.9 %
Test CRC FD020AF6
Copy CRC FD020AF6
Cannot be verified as accurate (confidence 1) [3594E272], AccurateRip returned [17E4F493] (AR v2)
Copy OK
Track 8
Filename C:\EAC\Mayr- Sisara\Disc 2\08 Adjuva aeterna Deus manum armatum (Jahel).wav
Peak level 42.5 %
Extraction speed 1.4 X
Track quality 100.0 %
Test CRC 92836752
Copy CRC 92836752
Cannot be verified as accurate (confidence 1) [63DE2521], AccurateRip returned [637095A5] (AR v2)
Copy OK
Track 9
Filename C:\EAC\Mayr- Sisara\Disc 2\09 Quod silentium (Sisara,Jahel).wav
Peak level 29.2 %
Extraction speed 2.8 X
Track quality 100.0 %
Test CRC E1C9FB70
Copy CRC E1C9FB70
Cannot be verified as accurate (confidence 1) [5C24B9CD], AccurateRip returned [7AC68E07] (AR v2)
Copy OK
Track 10
Filename C:\EAC\Mayr- Sisara\Disc 2\10 Veni o chara ad me vicina (Sisara,Jahel).wav
Peak level 50.8 %
Extraction speed 3.0 X
Track quality 100.0 %
Test CRC B240EE08
Copy CRC B240EE08
Cannot be verified as accurate (confidence 1) [6EE874A8], AccurateRip returned [849C1C34] (AR v2)
Copy OK
Track 11
Filename C:\EAC\Mayr- Sisara\Disc 2\11 Tam fortis vir pavescit (Jahel).wav
Peak level 38.8 %
Extraction speed 1.8 X
Track quality 100.0 %
Test CRC 06C4C3E6
Copy CRC 06C4C3E6
Cannot be verified as accurate (confidence 1) [D9A41738], AccurateRip returned [C8280C96] (AR v2)
Copy OK
Track 12
Filename C:\EAC\Mayr- Sisara\Disc 2\12 Veni somne (Sisara, Jahel).wav
Peak level 20.0 %
Extraction speed 2.8 X
Track quality 100.0 %
Test CRC DB3F6777
Copy CRC DB3F6777
Cannot be verified as accurate (confidence 1) [460710FD], AccurateRip returned [F808A8ED] (AR v2)
Copy OK
Track 13
Filename C:\EAC\Mayr- Sisara\Disc 2\13 Dormi perfide dormi (Jahel,Barac,Debbora).wav
Peak level 38.3 %
Extraction speed 1.3 X
Track quality 99.8 %
Test CRC 20DDDB11
Copy CRC 20DDDB11
Cannot be verified as accurate (confidence 1) [8C292E5C], AccurateRip returned [8F0EBBEB] (AR v2)
Copy OK
Track 14
Filename C:\EAC\Mayr- Sisara\Disc 2\14 Hostes fugati fremant (Debbora).wav
Peak level 49.8 %
Extraction speed 3.0 X
Track quality 100.0 %
Test CRC 447D771E
Copy CRC 447D771E
Cannot be verified as accurate (confidence 1) [020787D0], AccurateRip returned [25B27B86] (AR v2)
Copy OK
Track 15
Filename C:\EAC\Mayr- Sisara\Disc 2\15 Impera mulier to quid vis (Barac).wav
Peak level 37.7 %
Extraction speed 1.6 X
Track quality 100.0 %
Test CRC 1ABBA541
Copy CRC 1ABBA541
Cannot be verified as accurate (confidence 1) [DC4ED015], AccurateRip returned [C9C9DC70] (AR v2)
Copy OK
Track 16
Filename C:\EAC\Mayr- Sisara\Disc 2\16 Ah quid dictis vos (Jahel).wav
Peak level 34.5 %
Extraction speed 2.3 X
Track quality 100.0 %
Test CRC 0BCC51D9
Copy CRC 0BCC51D9
Cannot be verified as accurate (confidence 1) [C324CFCF], AccurateRip returned [9FC1EB4D] (AR v2)
Copy OK
Track 17
Filename C:\EAC\Mayr- Sisara\Disc 2\17 Per te victoria & pax (Jahel).wav
Peak level 55.8 %
Extraction speed 1.9 X
Track quality 99.9 %
Test CRC EF19E963
Copy CRC EF19E963
Cannot be verified as accurate (confidence 1) [D3D25CFD], AccurateRip returned [A88136D6] (AR v2)
Copy OK
Track 18
Filename C:\EAC\Mayr- Sisara\Disc 2\18 Pergite mecum (Debbora).wav
Peak level 51.4 %
Extraction speed 3.4 X
Track quality 100.0 %
Test CRC 73C5BB7C
Copy CRC 73C5BB7C
Cannot be verified as accurate (confidence 1) [81BCD817], AccurateRip returned [B1321236] (AR v2)
Copy OK
Track 19
Filename C:\EAC\Mayr- Sisara\Disc 2\19 Finale II- Vive immortale numen (Coro,Soli).wav
Peak level 93.3 %
Extraction speed 3.6 X
Track quality 100.0 %
Test CRC BB81B7B8
Copy CRC BB81B7B8
Cannot be verified as accurate (confidence 1) [1059F6BC], AccurateRip returned [00C0671A] (AR v2)
Copy OK
No tracks could be verified as accurate
You may have a different pressing from the one(s) in the database
No errors occurred
End of status report

Содержание индексной карты (.CUE)

CD1

REM ACCURATERIPID 0023c1ab-01ff3452-190b6d14
REM GENRE "Classical"
REM DATE 2004
REM DISCID 190B6D14
REM COMMENT "ExactAudioCopy v1.0b3"
PERFORMER "Accademia I Filarmonici i Verona"
TITLE "Mayr- Sisara Disc 1"
REM DISCNUMBER 1
REM TOTALDISCS 1
FILE "Accademia I Filarmonici i Verona - Mayr- Sisara Disc 1.ape" WAVE
TRACK 01 AUDIO
TITLE "Sinfonia"
PERFORMER "Accademia I Filarmonici i Verona"
INDEX 01 00:00:00
TRACK 02 AUDIO
TITLE "Trementes pallentes (Coro, Soli)"
PERFORMER "Accademia I Filarmonici i Verona"
INDEX 01 04:36:20
TRACK 03 AUDIO
TITLE "Qualis timor vobis? (Debbora,Jahel,Barac)"
PERFORMER "Accademia I Filarmonici i Verona"
INDEX 01 08:34:74
TRACK 04 AUDIO
TITLE "Omnipotentis Dei (Debborah)"
PERFORMER "Accademia I Filarmonici i Verona"
INDEX 01 09:36:69
TRACK 05 AUDIO
TITLE "Ad pugnam pergo (Barac,Jahel, Debborah)"
PERFORMER "Accademia I Filarmonici i Verona"
INDEX 01 13:02:17
TRACK 06 AUDIO
TITLE "Victoria calmate (Coro,Soli)"
PERFORMER "Accademia I Filarmonici i Verona"
INDEX 01 13:55:70
TRACK 07 AUDIO
TITLE "Iniqua ingrata sors (Sisara,Jahel) "
PERFORMER "Accademia I Filarmonici i Verona"
INDEX 01 16:13:50
TRACK 08 AUDIO
TITLE "Qualis sit locus iste? (Sisara)"
PERFORMER "Accademia I Filarmonici i Verona"
INDEX 01 18:18:00
TRACK 09 AUDIO
TITLE "Dulces aurae rivi amici (Sisara)"
PERFORMER "Accademia I Filarmonici i Verona"
INDEX 01 20:44:69
TRACK 10 AUDIO
TITLE "Jahel!... (Barac, Jahel)"
PERFORMER "Accademia I Filarmonici i Verona"
INDEX 01 23:12:12
TRACK 11 AUDIO
TITLE "In te confido (Barac)"
PERFORMER "Accademia I Filarmonici i Verona"
INDEX 01 23:52:66
TRACK 12 AUDIO
TITLE "Quid agam? (Jahel,Sisara)"
PERFORMER "Accademia I Filarmonici i Verona"
INDEX 01 27:05:35
TRACK 13 AUDIO
TITLE "Ne tardes Jahel: ad opus (Jahel)"
PERFORMER "Accademia I Filarmonici i Verona"
INDEX 01 27:50:21
TRACK 14 AUDIO
TITLE "Quercus annosa elata (Jahel)"
PERFORMER "Accademia I Filarmonici i Verona"
INDEX 01 28:52:11
TRACK 15 AUDIO
TITLE "Lasso defatigato (Sisara,Dina, Elcana)"
PERFORMER "Accademia I Filarmonici i Verona"
INDEX 01 35:02:44
TRACK 16 AUDIO
TITLE "Vas lacte repletum (Dina,Elcana) Dona a vobis oblata (Sisara, Thamar,Abra)"
PERFORMER "Accademia I Filarmonici i Verona"
INDEX 01 36:10:06
TRACK 17 AUDIO
TITLE "En terrae foecundae (Thamat, Abra) Quod portentum! (Sisara)"
PERFORMER "Accademia I Filarmonici i Verona"
INDEX 01 37:36:29
TRACK 18 AUDIO
TITLE "Ubi sum o dei potentes (Sisara) O moti celeri"
PERFORMER "Accademia I Filarmonici i Verona"
INDEX 01 39:12:00
TRACK 19 AUDIO
TITLE "O virorum fortissme! (Jahel)"
PERFORMER "Accademia I Filarmonici i Verona"
INDEX 01 43:43:12
TRACK 20 AUDIO
TITLE "Veni solare & ride (Jahel,Sisara,Thamar,Dina)"
PERFORMER "Accademia I Filarmonici i Verona"
INDEX 01 44:19:34

CD2

REM ACCURATERIPID 001f340b-01aed620-e50a8413
REM GENRE "Classical"
REM DATE 2004
REM DISCID E50A8413
REM COMMENT "ExactAudioCopy v1.0b3"
PERFORMER "Accademia I Filaemonici di Verona"
TITLE "Mayr: Sisara Disc 2"
REM DISCNUMBER 1
REM TOTALDISCS 1
FILE "Accademia I Filaemonici di Verona - Mayr_ Sisara Disc 2.ape" WAVE
TRACK 01 AUDIO
TITLE "Sinfonia"
PERFORMER "Accademia I Filaemonici di Verona"
INDEX 01 00:00:00
TRACK 02 AUDIO
TITLE "Quaeso puella (Sisara,Abra)"
PERFORMER "Accademia I Filaemonici di Verona"
INDEX 01 04:07:59
TRACK 03 AUDIO
TITLE "Pacem spera suspiratam (Abra)"
PERFORMER "Accademia I Filaemonici di Verona"
INDEX 01 04:58:56
TRACK 04 AUDIO
TITLE "Amabilis irata (Sisara,Jahel)"
PERFORMER "Accademia I Filaemonici di Verona"
INDEX 01 06:58:41
TRACK 05 AUDIO
TITLE "Resta o chare & me solare (Sisara,Jahel)"
PERFORMER "Accademia I Filaemonici di Verona"
INDEX 01 08:44:43
TRACK 06 AUDIO
TITLE "Quid actum sit? (Barac, Debbora)"
PERFORMER "Accademia I Filaemonici di Verona"
INDEX 01 13:46:58
TRACK 07 AUDIO
TITLE "Ah cor tu non consola (Barac)"
PERFORMER "Accademia I Filaemonici di Verona"
INDEX 01 14:24:13
TRACK 08 AUDIO
TITLE "Adjuva aeterna Deus manum armatum (Jahel)"
PERFORMER "Accademia I Filaemonici di Verona"
INDEX 01 17:48:25
TRACK 09 AUDIO
TITLE "Quod silentium (Sisara,Jahel)"
PERFORMER "Accademia I Filaemonici di Verona"
INDEX 01 18:19:72
TRACK 10 AUDIO
TITLE "Veni o chara ad me vicina (Sisara,Jahel)"
PERFORMER "Accademia I Filaemonici di Verona"
INDEX 01 22:53:28
TRACK 11 AUDIO
TITLE "Tam fortis vir pavescit? (Jahel)"
PERFORMER "Accademia I Filaemonici di Verona"
INDEX 01 26:55:64
TRACK 12 AUDIO
TITLE "Veni somne (Sisara, Jahel)"
PERFORMER "Accademia I Filaemonici di Verona"
INDEX 01 27:33:48
TRACK 13 AUDIO
TITLE "Dormi perfide dormi (Jahel,Barac,Debbora)"
PERFORMER "Accademia I Filaemonici di Verona"
INDEX 01 29:52:47
TRACK 14 AUDIO
TITLE "Hostes fugati fremant (Debbora)"
PERFORMER "Accademia I Filaemonici di Verona"
INDEX 01 31:10:47
TRACK 15 AUDIO
TITLE "Impera mulier to quid vis (Barac)"
PERFORMER "Accademia I Filaemonici di Verona"
INDEX 01 33:53:56
TRACK 16 AUDIO
TITLE "Ah quid dictis vos? (Jahel)"
PERFORMER "Accademia I Filaemonici di Verona"
INDEX 01 34:23:32
TRACK 17 AUDIO
TITLE "Per te victoria & pax (Jahel)"
PERFORMER "Accademia I Filaemonici di Verona"
INDEX 01 35:22:04
TRACK 18 AUDIO
TITLE "Pergite mecum (Debbora)"
PERFORMER "Accademia I Filaemonici di Verona"
INDEX 01 37:28:42
TRACK 19 AUDIO
TITLE "Finale II: Vive immortale numen (Coro,Soli)"
PERFORMER "Accademia I Filaemonici di Verona"
INDEX 01 40:50:17

Лог проверки качества

CD1

[CUETools log; Date: 31-5-2015 13:45:04; Version: 2.1.4]
[AccurateRip ID: 0023c1ab-01ff3452-190b6d14] found.
Track [ CRC | V2 ] Status
01 [857c6286|038be9fa] (0+1/2) Accurately ripped
02 [52241f4a|cc222f29] (0+1/2) Accurately ripped
03 [6cd4d0ad|5e0c76fe] (0+1/2) Accurately ripped
04 [b162c733|6c3c7af2] (0+1/2) Accurately ripped
05 [5278a932|8c2a0ec4] (0+1/2) Accurately ripped
06 [468d58c4|1d741b30] (0+1/2) Accurately ripped
07 [7ed130e2|b5580ebf] (0+1/2) Accurately ripped
08 [406aba4a|a30153c4] (0+1/2) Accurately ripped
09 [b8ec3949|78682022] (0+1/2) Accurately ripped
10 [bf221453|964c92d0] (0+1/2) Accurately ripped
11 [d0ffa67d|268971b5] (0+1/2) Accurately ripped
12 [3ac96821|8bed5cd3] (0+1/2) Accurately ripped
13 [e0813a04|82764a58] (0+1/2) Accurately ripped
14 [5b801ae2|c219613c] (0+1/2) Accurately ripped
15 [0955fd9d|7aff82d7] (0+1/2) Accurately ripped
16 [186f0fc0|d6af0503] (0+1/2) Accurately ripped
17 [9921c5f6|ee8dda9c] (0+1/2) Accurately ripped
18 [cd6913ed|e20e81f2] (0+1/2) Accurately ripped
19 [7b4b61da|c874d107] (0+1/2) Accurately ripped
20 [052c0493|c9664275] (0+1/2) Accurately ripped
Offsetted by -904:
01 [2adc6d7e] (1/2) Accurately ripped
02 [f70409f8] (1/2) Accurately ripped
03 [e69ebc2c] (1/2) Accurately ripped
04 [223dff63] (1/2) Accurately ripped
05 [0495d396] (1/2) Accurately ripped
06 [c2c9a1a4] (1/2) Accurately ripped
07 [0a3413c4] (1/2) Accurately ripped
08 [28da85fb] (1/2) Accurately ripped
09 [534d4b18] (1/2) Accurately ripped
10 [94504332] (1/2) Accurately ripped
11 [ec264a87] (1/2) Accurately ripped
12 [b388535b] (1/2) Accurately ripped
13 [91edc13c] (1/2) Accurately ripped
14 [a31696bc] (1/2) Accurately ripped
15 [082b330d] (1/2) Accurately ripped
16 [8dd1fda6] (1/2) Accurately ripped
17 [6913eddf] (1/2) Accurately ripped
18 [418d676f] (1/2) Accurately ripped
19 [7280445a] (1/2) Accurately ripped
20 [02d2b45f] (1/2) Accurately ripped
Track Peak [ CRC32 ] [W/O NULL] [ LOG ]
-- 93,3 [27E09F13] [8E8CB486]
01 63,0 [87A2A607] [48044DDE] CRC32
02 93,3 [57AE6B0C] [9581D539] CRC32
03 42,7 [68CFB8C2] [65FCDDBC] CRC32
04 71,7 [28F7C1FB] [41A9CA8B] CRC32
05 71,9 [7E2130C1] [E7F724C4] CRC32
06 89,3 [22560EA5] [8DC82693] CRC32
07 60,9 [E4E7D193] [4E3A814C] CRC32
08 27,9 [43A67AB3] [E9E99B76] CRC32
09 85,5 [F4ABAF53] [DE1E1E78] CRC32
10 93,3 [A4B42AA9] [35282D66] CRC32
11 91,1 [6DE4052C] [C85E3B5A] CRC32
12 28,5 [D1EE57FF] [E244F14D] CRC32
13 54,0 [AC785535] [DF314F70] CRC32
14 91,7 [687C9FD2] [8D40387C] CRC32
15 22,3 [F19DE05D] [1C7982BD] CRC32
16 93,3 [BC180C4D] [3BDE4720] CRC32
17 57,7 [01E2C83D] [5B1913A7] CRC32
18 93,3 [4BC2A75C] [D6B31CF9] CRC32
19 21,6 [043A132F] [D4D8E340] CRC32
20 63,9 [45209263] [6F651D2B] CRC32

CD2

[CUETools log; Date: 31-5-2015 13:42:15; Version: 2.1.4]
[AccurateRip ID: 001f340b-01aed620-e50a8413] found.
Track [ CRC | V2 ] Status
01 [a763ee23|02ac5178] (0+1/2) Accurately ripped
02 [83d7af3f|6511aecd] (0+1/2) Accurately ripped
03 [79e1f48a|fa8ac15e] (0+1/2) Accurately ripped
04 [2ca772b4|e900fd8f] (0+1/2) Accurately ripped
05 [58dab701|106753e6] (0+1/2) Accurately ripped
06 [ace59bfd|6914acf7] (0+1/2) Accurately ripped
07 [97e2bb24|3594e272] (0+1/2) Accurately ripped
08 [e3a06c80|63de2521] (0+1/2) Accurately ripped
09 [c87171db|5c24b9cd] (0+1/2) Accurately ripped
10 [fea11939|6ee874a8] (0+1/2) Accurately ripped
11 [15f7c7b1|d9a41738] (0+1/2) Accurately ripped
12 [32970da0|460710fd] (0+1/2) Accurately ripped
13 [db4c5833|8c292e5c] (0+1/2) Accurately ripped
14 [693034c1|020787d0] (0+1/2) Accurately ripped
15 [17a1fe6c|dc4ed015] (0+1/2) Accurately ripped
16 [6695396d|c324cfcf] (0+1/2) Accurately ripped
17 [2b428fee|d3d25cfd] (0+1/2) Accurately ripped
18 [6da2ced4|81bcd817] (0+1/2) Accurately ripped
19 [fb09214a|1059f6bc] (0+1/2) Accurately ripped
Offsetted by -784:
01 [062c59fc] (1/2) Accurately ripped
02 [00aa5dd2] (1/2) Accurately ripped
03 [ccb54067] (1/2) Accurately ripped
04 [24942bff] (1/2) Accurately ripped
05 [a3417d3f] (1/2) Accurately ripped
06 [ea7cad8a] (1/2) Accurately ripped
07 [17e4f493] (1/2) Accurately ripped
08 [637095a5] (1/2) Accurately ripped
09 [7ac68e07] (1/2) Accurately ripped
10 [849c1c34] (1/2) Accurately ripped
11 [c8280c96] (1/2) Accurately ripped
12 [f808a8ed] (1/2) Accurately ripped
13 [8f0ebbeb] (1/2) Accurately ripped
14 [25b27b86] (1/2) Accurately ripped
15 [c9c9dc70] (1/2) Accurately ripped
16 [9fc1eb4d] (1/2) Accurately ripped
17 [a88136d6] (1/2) Accurately ripped
18 [b1321236] (1/2) Accurately ripped
19 [00c0671a] (1/2) Accurately ripped
Track Peak [ CRC32 ] [W/O NULL] [ LOG ]
-- 93,3 [7F51A23C] [7A8E2E76]
01 41,8 [3737259C] [6A4FD2EC] CRC32
02 93,3 [9B3E97CC] [3FC1EA82] CRC32
03 60,7 [6E6BD1A3] [FCD02C90] CRC32
04 52,6 [4FD02A61] [5B0CE5C7] CRC32
05 43,2 [20739A0A] [AB7C9B4A] CRC32
06 49,8 [ADEDB417] [20C6D9F0] CRC32
07 65,6 [FD020AF6] [5C705D24] CRC32
08 42,5 [92836752] [44251B90] CRC32
09 29,2 [E1C9FB70] [DAE3851B] CRC32
10 50,8 [B240EE08] [EE85E840] CRC32
11 38,8 [06C4C3E6] [2D3B8986] CRC32
12 20,0 [DB3F6777] [EBF8DDEC] CRC32
13 38,3 [20DDDB11] [1283E6EA] CRC32
14 49,7 [447D771E] [A223DBF4] CRC32
15 37,7 [1ABBA541] [1CC01499] CRC32
16 34,5 [0BCC51D9] [463C0074] CRC32
17 55,8 [EF19E963] [16BE11A7] CRC32
18 51,4 [73C5BB7C] [D861B52B] CRC32
19 93,3 [BB81B7B8] [34A094D8] CRC32
Доп. информация:
Mayr had a career in sacred music in parallel to his operatic vocation, spending most of his working life at the Basilica of Sta. Maria Maggiore in Bergamo.
Before the Bergamo appointment he lived and worked in Venice where his first opera, Saffo, was premiered and where he wrote a number of oratorios.
Sisara was written in 1793, for the Ospedale dei Mendicanti, one of the four music conservatories in Venice concerned with orphans, so Mayr restricted himself to just female voices.
This recording is directed by Franz Hauk recorded at the Asam Kirche in Ingoldstadt, with a new group, the Academia I Filarmonici di Verona.
The plot tells the Biblical story of Jael (Jahel in this version) and Sisara, from the Book of Judges (chapter 4).
The Israelites are subjects of the King of Canaan; Jahel pretends to be in love with Sisara the commander of the King of Canaan’s forces.
She lures Sisara to her tent and kills him - driving a tent-peg through his heart.
The rather similar story of Judith and Holofernes had already been the subject of a Venetian oratorio, written by Vivaldi for the Ospedale dei Pieta and similarly scored for female voices.
Both are strangely gruesome stories for female educational institutions.
Mayr was just seven years younger than Mozart and Sisara is notable for its Mozartian cast.
Time and again his inventive orchestration recalls Mozart, for example in the prominent wind parts in Jahel’s aria Quercus annos elata in Act 1.
The recitatives are generally accompanied and there are a number of extended ariosos.
Sisara’s Act 1 recitative Qualis sit locus iste has a most attractive Gluckian accompaniment.
It must be admitted though, that the vocal lines rarely match the imagination of these ritornelli.
But amongst the other notable features is a pair of charming, brief duets separated by a short recitative, a delightful device.
Act 1 closes with an almost operatic ensemble for Jael, Sisara, Thamar and Dina.
A notable moment in Act 2 is the strikingly orchestrated arioso for Sisara, Quod Silentium as he lies troubled, trying to sleep.
The dirty deed is done in a quite short, rather understated recitative; dramatic verisimilitude does not seem to have been Mayr’s intention.
The oratorio concludes with celebratory arias for Jahel and for the prophetess Debbora and a final chorus.
[teatrix.ru].t7850.torrent 
Торрент: Зарегистрирован [ 2015-10-14 02:42 ] · EC98FC9CB71F01E30A0183D6274924AC9A15458F

Скачать .torrent

Скачать

18 KB

Статус: проверено
Скачан: 0 раз
Размер: 387 MB
terms.php



Быстрый ответ

Имя:

      
Для отправки сообщений необходимо включить JavaScript
Показать сообщения:    

Текущее время: 04-Дек 04:58

Часовой пояс: UTC + 3


Вы можете начинать темы
Вы можете отвечать на сообщения
Вы не можете редактировать свои сообщения
Вы не можете удалять свои сообщения
Вы не можете голосовать в опросах
Вы не можете прикреплять файлы к сообщениям
Вы можете скачивать файлы