(Baroque sacred) М.А. Charpentier - Te Deum H. 146, J.S. Bach - Magnificat (Paul Kuentz Orchestre & Choeurs) - 1995, FLAC (image+.cue) lossless


Статистика раздачи [Обновить пиров]
Размер:  309 MB   |    Зарегистрирован:  1 год 1 месяц   |    Скачан:  0 раз

Полного источника не было: Никогда

 
   
 
 
 

[Цитировать]

М. А. Шарпантье: "Te Deum"/ И.С. Бах "Magnificat"

Жанр: Baroque sacred
Страна-производитель диска: Made in France
Год издания диска: 1995
Издатель (лейбл): PIERRE VERANY
Номер по каталогу: PV 730048
Дата записи: 1994
Аудиокодек: FLAC
Тип рипа: image+.cue
Битрейт аудио: lossless
Продолжительность: 57'46
Источник: релизер
сайт-источник/ник/другое: curumo (Boris Andonovski), по моей просьбе
Наличие сканов в содержимом раздачи: да
Треклист:
1-9 Te Deum (26'03)
10-21 Magnificat (31'24)
Исполнители:

скрытый текст

М.А. Шарпантье - Te Deum H. 146
И.С. Бах - Magnificat
Helene Obadia (сопрано 1)
Brigitte Vinson (сопрано 2)
Madeleine Jalbert (альт)
Herve Lamy (тенор)
Philip Langshaw (бас)
ORCHESTRE & CHOEURS PAUL KUENTZ
Paul Kuentz (дирижёр)

Лог создания рипа

Exact Audio Copy V1.0 beta 6 from 9. April 2015
EAC extraction logfile from 10. May 2015, 18:02
Paul Kuentz Orchestra & Choir / Te Deum
Used drive : HL-DT-STDVD-RAM GH22LS30 Adapter: 1 ID: 1
Read mode : SecureUtilize accurate stream : YesDefeat audio cache : YesMake use of C2 pointers : No
Read offset correction : 102Overread into Lead-In and Lead-Out : NoFill up missing offset samples with silence : YesDelete leading and trailing silent blocks : NoNull samples used in CRC calculations : YesUsed interface : Native Win32 interface for Win NT & 2000
Used output format : User Defined EncoderSelected bitrate : 768 kBit/sQuality : HighAdd ID3 tag : NoCommand line compressor : C:\Program Files (x86)\Exact Audio Copy\FLAC\FLAC.EXEAdditional command line options : -6 -V -T "ARTIST=%artist%" -T "TITLE=%title%" -T "ALBUM=%albumtitle%" -T "DATE=%year%" -T "TRACKNUMBER=%tracknr%" -T "GENRE=%genre%" -T "COMMENT=%comment%" -T "BAND=%albuminterpret%" -T "ALBUMARTIST=%albuminterpret%" -T "COMPOSER=%composer%" %haslyrics%--tag-from-file=LYRICS="%lyricsfile%"%haslyrics% -T "DISCNUMBER=%cdnumber%" -T "TOTALDISCS=%totalcds%" -T "TOTALTRACKS=%numtracks%" %hascover%--picture="%coverfile%"%hascover% %source% -o %dest%
TOC of the extracted CD
Track | Start | Length | Start sector | End sector --------------------------------------------------------- 1 | 0:00.00 | 1:52.13 | 0 | 8412 2 | 1:52.13 | 1:35.29 | 8413 | 15566 3 | 3:27.42 | 4:20.01 | 15567 | 35067 4 | 7:47.43 | 3:39.57 | 35068 | 51549 5 | 11:27.25 | 1:58.02 | 51550 | 60401 6 | 13:25.27 | 2:33.71 | 60402 | 71947 7 | 15:59.23 | 2:44.62 | 71948 | 84309 8 | 18:44.10 | 4:04.25 | 84310 | 102634 9 | 22:48.35 | 3:24.43 | 102635 | 117977 10 | 26:13.03 | 3:20.25 | 117978 | 133002 11 | 29:33.28 | 2:29.30 | 133003 | 144207 12 | 32:02.58 | 3:18.50 | 144208 | 159107 13 | 35:21.33 | 1:27.00 | 159108 | 165632 14 | 36:48.33 | 2:27.52 | 165633 | 176709 15 | 39:16.10 | 4:04.00 | 176710 | 195009 16 | 43:20.10 | 2:15.35 | 195010 | 205169 17 | 45:35.45 | 2:18.10 | 205170 | 215529 18 | 47:53.55 | 2:55.73 | 215530 | 228727 19 | 50:49.53 | 2:24.37 | 228728 | 239564 20 | 53:14.15 | 1:57.18 | 239565 | 248357 21 | 55:11.33 | 2:34.05 | 248358 | 259912
Range status and errors
Selected range
Filename G:\RIP\101-200\181-190.OK\184. Charpentier - Te Deum, Magnificat.IC-EAC_Mail.RU\upload\Paul Kuentz Orchestra & Choir - Charpentier - Te Deum.wav
Peak level 92.9 % Extraction speed 2.6 X Range quality 100.0 % Copy CRC 426F8600 Copy OK
No errors occurred
AccurateRip summary
Track 1 accurately ripped (confidence 1) [4DBF2E75] (AR v2)Track 2 accurately ripped (confidence 1) [05A37A13] (AR v2)Track 3 accurately ripped (confidence 1) [439EF75D] (AR v2)Track 4 accurately ripped (confidence 1) [92684FC4] (AR v2)Track 5 accurately ripped (confidence 1) [3C02AE53] (AR v2)Track 6 accurately ripped (confidence 1) [40442571] (AR v2)Track 7 accurately ripped (confidence 1) [2D06D77C] (AR v2)Track 8 accurately ripped (confidence 1) [F699D0E8] (AR v2)Track 9 accurately ripped (confidence 1) [451A3463] (AR v2)Track 10 accurately ripped (confidence 1) [E06A9839] (AR v2)Track 11 accurately ripped (confidence 1) [483E7E92] (AR v2)Track 12 accurately ripped (confidence 1) [8C621FA5] (AR v2)Track 13 accurately ripped (confidence 1) [ACB32D0C] (AR v2)Track 14 accurately ripped (confidence 1) [5B8C3FE5] (AR v2)Track 15 accurately ripped (confidence 1) [0936319B] (AR v2)Track 16 accurately ripped (confidence 1) [EA0739A8] (AR v2)Track 17 accurately ripped (confidence 1) [6DFD4E92] (AR v2)Track 18 accurately ripped (confidence 1) [ADE20FF7] (AR v2)Track 19 accurately ripped (confidence 1) [B4A55E5C] (AR v2)Track 20 accurately ripped (confidence 1) [61D42E4B] (AR v2)Track 21 accurately ripped (confidence 1) [BC45B4F2] (AR v2)
All tracks accurately ripped
End of status report
---- CUETools DB Plugin V2.1.6
[CTDB TOCID: KPZozvweNtA3A3hjVHuA0Sn3HME-] foundSubmit result: KPZozvweNtA3A3hjVHuA0Sn3HME- has been confirmedTrack | CTDB Status 1 | (3/3) Accurately ripped 2 | (3/3) Accurately ripped 3 | (3/3) Accurately ripped 4 | (3/3) Accurately ripped 5 | (3/3) Accurately ripped 6 | (3/3) Accurately ripped 7 | (3/3) Accurately ripped 8 | (3/3) Accurately ripped 9 | (3/3) Accurately ripped 10 | (3/3) Accurately ripped 11 | (3/3) Accurately ripped 12 | (3/3) Accurately ripped 13 | (3/3) Accurately ripped 14 | (3/3) Accurately ripped 15 | (3/3) Accurately ripped 16 | (3/3) Accurately ripped 17 | (3/3) Accurately ripped 18 | (3/3) Accurately ripped 19 | (3/3) Accurately ripped 20 | (3/3) Accurately ripped 21 | (3/3) Accurately ripped
==== Log checksum 2B5B92E32B655CFEF5827E9B8CFEB1172077D366BCDBC50AE93F7B963F039786 ====

Содержание индексной карты (.CUE)

REM GENRE ClassicalREM DATE 1995REM DISCID 200D8915REM COMMENT "ExactAudioCopy v1.0b6"PERFORMER "Paul Kuentz Orchestra & Choir"TITLE "Te Deum"FILE "Paul Kuentz Orchestra & Choir - Charpentier - Te Deum.flac" WAVE TRACK 01 AUDIO TITLE "Te Deum - Prelude" PERFORMER "Paul Kuentz Orchestra & Choir" INDEX 01 00:00:00 TRACK 02 AUDIO TITLE "Te Deum Laudamus" PERFORMER "Paul Kuentz Orchestra & Choir" INDEX 01 01:52:13 TRACK 03 AUDIO TITLE "Te .ternum Patrem" PERFORMER "Paul Kuentz Orchestra & Choir" INDEX 01 03:27:42 TRACK 04 AUDIO TITLE "Te per Prbem" PERFORMER "Paul Kuentz Orchestra & Choir" INDEX 01 07:47:43 TRACK 05 AUDIO TITLE "Tu Devicto Mortis" PERFORMER "Paul Kuentz Orchestra & Choir" INDEX 01 11:27:25 TRACK 06 AUDIO TITLE "Tu Ergo Qu.sumus" PERFORMER "Paul Kuentz Orchestra & Choir" INDEX 01 13:25:27 TRACK 07 AUDIO TITLE "Aeterna fac cum Sanctis" PERFORMER "Paul Kuentz Orchestra & Choir" INDEX 01 15:59:23 TRACK 08 AUDIO TITLE "Digarne Domine" PERFORMER "Paul Kuentz Orchestra & Choir" INDEX 01 18:44:10 TRACK 09 AUDIO TITLE "In Te Domine" PERFORMER "Paul Kuentz Orchestra & Choir" INDEX 01 22:48:35 TRACK 10 AUDIO TITLE "Magnificat - Magnificat" PERFORMER "Paul Kuentz Orchestra & Choir" INDEX 00 26:06:35 INDEX 01 26:13:03 TRACK 11 AUDIO TITLE "Et Exultavit" PERFORMER "Paul Kuentz Orchestra & Choir" INDEX 01 29:33:28 TRACK 12 AUDIO TITLE "Quia Respexit" PERFORMER "Paul Kuentz Orchestra & Choir" INDEX 00 32:02:57 INDEX 01 32:02:58 TRACK 13 AUDIO TITLE "Omnes Generationes" PERFORMER "Paul Kuentz Orchestra & Choir" INDEX 01 35:21:33 TRACK 14 AUDIO TITLE "Quia Fecit Mihi Magna" PERFORMER "Paul Kuentz Orchestra & Choir" INDEX 01 36:48:33 TRACK 15 AUDIO TITLE "Et Misericordia" PERFORMER "Paul Kuentz Orchestra & Choir" INDEX 01 39:16:10 TRACK 16 AUDIO TITLE "Fecit Potentiam" PERFORMER "Paul Kuentz Orchestra & Choir" INDEX 00 43:18:60 INDEX 01 43:20:10 TRACK 17 AUDIO TITLE "Deposuit" PERFORMER "Paul Kuentz Orchestra & Choir" INDEX 01 45:35:45 TRACK 18 AUDIO TITLE "Esurientes" PERFORMER "Paul Kuentz Orchestra & Choir" INDEX 01 47:53:55 TRACK 19 AUDIO TITLE "Suscepit Isreal" PERFORMER "Paul Kuentz Orchestra & Choir" INDEX 01 50:49:53 TRACK 20 AUDIO TITLE "Sicut Locutus Est" PERFORMER "Paul Kuentz Orchestra & Choir" INDEX 01 53:14:15 TRACK 21 AUDIO TITLE "Gloria" PERFORMER "Paul Kuentz Orchestra & Choir" INDEX 01 55:11:33
[teatrix.ru].t7851.torrent 
Торрент: Зарегистрирован [ 2015-10-14 02:42 ] · 45DF0B9621411996E6E8269CF9AD68414219FB1F

Скачать .torrent

Скачать

13 KB

Статус: проверено
Скачан: 0 раз
Размер: 309 MB
terms.php



Быстрый ответ

Имя:

      
Для отправки сообщений необходимо включить JavaScript
Показать сообщения:    

Текущее время: 10-Дек 00:19

Часовой пояс: UTC + 3


Вы можете начинать темы
Вы можете отвечать на сообщения
Вы не можете редактировать свои сообщения
Вы не можете удалять свои сообщения
Вы не можете голосовать в опросах
Вы не можете прикреплять файлы к сообщениям
Вы можете скачивать файлы