(Classical) Сергей Рахманинов (Rachmaninov, Rachmaninoff) - Литургия Иоанна Златоуста - Московская Хоровая Академия, Виктор Попов - 2006, FLAC (image+.cue), lossless


Статистика раздачи [Обновить пиров]
Размер:  228 MB   |    Зарегистрирован:  1 год 1 месяц   |    Скачан:  0 раз

Полного источника не было: Никогда

 
   
 
 
 

[Цитировать]

Сергей Васильевич Рахманинов- -Жанр: Classical || Страна-производитель диска: Russia || Издатель (лейбл): Фирма грамзаписи Никитин
Номер по каталогу: ТФН - CD 485/06 || Год издания: 2006 || Аудиокодек: FLAC (*.flac) || Битрейт аудио: lossless
Тип рипа: image+.cue || Продолжительность: 58:27 || Источник (релизер): Original CD || Наличие сканов в содержимом раздачи: да
-Литургия Иоанна Златоуста:
-
-

2006 - Литургия Иоанна Златоуста

1 Великая Ектения 05:31
2 Благослови, душе моя, Господи 03:28
3 Единородный 01:51
4 Во царствие твоем 04:50
5 Прийдите, поклонимся 01:29
6 Господи, спаси благочествыя и Святый Боже 02:23
7 Иже Херувимы 04:04
8 Верую 04:30
9 Милость мира 03:24
10 Тебе поем 03:13
11 Достойно есть 02:34
12 Отче наш 03:54
13 Хвалите Господе 01:42
14 Благословен Грядый 01:06
15 Да исполнятся усте наша 03:29
16 Буди имя Господне 00:55
17 Слава Отцу 02:29
18 Гимн Пречистой Деве 07:36-Продолжительность: 58:27-

-

Лог создания рипа

Exact Audio Copy V1.0 beta 6 from 9. April 2015
EAC extraction logfile from 22. May 2015, 4:54
Московская Хоровая Академия, Виктор Попов / Литургия Иоанна Златоуста
Used drive : ASUS DRW-22B2L b Adapter: 1 ID: 1
Read mode : SecureUtilize accurate stream : YesDefeat audio cache : YesMake use of C2 pointers : No
Read offset correction : 6Overread into Lead-In and Lead-Out : NoFill up missing offset samples with silence : YesDelete leading and trailing silent blocks : NoNull samples used in CRC calculations : YesUsed interface : Native Win32 interface for Win NT & 2000
Used output format : User Defined EncoderSelected bitrate : 128 kBit/sQuality : HighAdd ID3 tag : NoCommand line compressor : C:\Program Files\Exact Audio Copy\Flac\flac.exeAdditional command line options : -V -8 -T "Date=%year%" -T "Genre=%genre%" -T "Composer=%composer%" %source%
TOC of the extracted CD
Track | Start | Length | Start sector | End sector --------------------------------------------------------- 1 | 0:00.00 | 5:30.52 | 0 | 24801 2 | 5:30.52 | 3:28.20 | 24802 | 40421 3 | 8:58.72 | 1:50.40 | 40422 | 48711 4 | 10:49.37 | 4:49.40 | 48712 | 70426 5 | 15:39.02 | 1:28.70 | 70427 | 77096 6 | 17:07.72 | 2:22.38 | 77097 | 87784 7 | 19:30.35 | 4:04.10 | 87785 | 106094 8 | 23:34.45 | 4:30.33 | 106095 | 126377 9 | 28:05.03 | 3:24.16 | 126378 | 141693 10 | 31:29.19 | 3:13.30 | 141694 | 156198 11 | 34:42.49 | 2:33.61 | 156199 | 167734 12 | 37:16.35 | 3:53.43 | 167735 | 185252 13 | 41:10.03 | 1:41.67 | 185253 | 192894 14 | 42:51.70 | 1:05.65 | 192895 | 197834 15 | 43:57.60 | 3:29.25 | 197835 | 213534 16 | 47:27.10 | 0:54.60 | 213535 | 217644 17 | 48:21.70 | 2:29.23 | 217645 | 228842 18 | 50:51.18 | 7:36.06 | 228843 | 263048
Range status and errors
Selected range
Filename C:\1st0m1n\!!! Rutracker.org Only !!!\Московская Хоровая Академия, Виктор Попов - Литургия Иоанна Златоуста.wav
Peak level 90.1 % Extraction speed 7.9 X Range quality 100.0 % Test CRC B4CC9055 Copy CRC B4CC9055 Copy OK
No errors occurred
AccurateRip summary
Track 1 not present in databaseTrack 2 not present in databaseTrack 3 not present in databaseTrack 4 not present in databaseTrack 5 not present in databaseTrack 6 not present in databaseTrack 7 not present in databaseTrack 8 not present in databaseTrack 9 not present in databaseTrack 10 not present in databaseTrack 11 not present in databaseTrack 12 not present in databaseTrack 13 not present in databaseTrack 14 not present in databaseTrack 15 not present in databaseTrack 16 not present in databaseTrack 17 not present in databaseTrack 18 not present in database
None of the tracks are present in the AccurateRip database
End of status report
---- CUETools DB Plugin V2.1.6
[CTDB TOCID: uYk.saVarfY3z8DeG21kpT8QoY8-] disk not present in databaseSubmit result: uYk.saVarfY3z8DeG21kpT8QoY8- has been uploaded
==== Log checksum 1F48A4D492672C3D4650EA0A21580ADCEC845190D54B52269F9BD6E48A94988B ====

-

Исполнитель

Московская Хоровая Академия.
Главный Хормейстер и Дирижер Виктор Попов.
-
-
[teatrix.ru].t7852.torrent 
Торрент: Зарегистрирован [ 2015-10-14 02:42 ] · 4A6299FA0394D09507A348ED301A151D020DD7AF

Скачать .torrent

Скачать

19 KB

Статус: проверено
Скачан: 0 раз
Размер: 228 MB
terms.php



Быстрый ответ

Имя:

      
Для отправки сообщений необходимо включить JavaScript
Показать сообщения:    

Текущее время: 11-Дек 11:06

Часовой пояс: UTC + 3


Вы можете начинать темы
Вы можете отвечать на сообщения
Вы не можете редактировать свои сообщения
Вы не можете удалять свои сообщения
Вы не можете голосовать в опросах
Вы не можете прикреплять файлы к сообщениям
Вы можете скачивать файлы