(Classical) Thomas Tallis · The Lamentations Of Jeremiah (The Hilliard Ensemble) · 1987, FLAC (tracks+.cue) lossless


Статистика раздачи [Обновить пиров]
Размер:  216 MB   |    Зарегистрирован:  1 год 1 месяц   |    Скачан:  0 раз

Полного источника не было: Никогда

 
   
 
 
 

[Цитировать]

Thomas Tallis
The Lamentations Of Jeremiah

Жанр: classical
Страна-производитель диска: Germany
Год издания диска: 1987
Лейбл: ECM New Series
Номер по каталогу: 1341
Дата записи: сентябрь 1986
Аудиокодек: FLAC
Тип рипа: tracks+.cue
Битрейт аудио: lossless
Продолжительность: 00:54:13
Источник: скачано с what.cd
Наличие сканов в содержимом раздачи: нет
Исполнители: The Hilliard Ensemble
Треклист:
Lamentations Of Jeremiah
01. Incipit Lamentatio (8:48)
02. De Lamentatione (12:57)

03. Salvator Mundi (2:49)
04. O Sacrum Convivium (3:48)
Mass For Four Voices
05. Gloria (5:04)
06. Credo (5:43)
07. Sanctus (2:54)
08. Benedictus (2:37)
09. Agnus Dei (4:02)

10. Absterge Domine (5:29)

Лог создания рипа

X Lossless Decoder version 20121027 (142.1)
XLD extraction logfile from 2012-11-02 12:14:15 +0000
Thomas Tallis / Tallis: Lamentations Of Jeremiah
Used drive : HL-DT-ST DVDRW GS21N (revision SA18)
Ripper mode : XLD Secure RipperDisable audio cache : OK for the drive with a cache less than 1375KiBMake use of C2 pointers : NORead offset correction : 667Max retry count : 100Gap status : Analyzed, Appended
TOC of the extracted CD Track | Start | Length | Start sector | End sector --------------------------------------------------------- 1 | 00:00:33 | 08:47:62 | 33 | 39619 2 | 08:48:20 | 12:57:15 | 39620 | 97909 3 | 21:45:35 | 02:48:70 | 97910 | 110579 4 | 24:34:30 | 03:48:30 | 110580 | 127709 5 | 28:22:60 | 05:04:18 | 127710 | 150527 6 | 33:27:03 | 05:42:55 | 150528 | 176232 7 | 39:09:58 | 02:54:27 | 176233 | 189309 8 | 42:04:10 | 02:36:65 | 189310 | 201074 9 | 44:41:00 | 04:02:30 | 201075 | 219254 10 | 48:43:30 | 05:29:13 | 219255 | 243942
List of alternate offset correction values # | Absolute | Relative | Confidence ------------------------------------------ 1 | 1998 | 1331 | 35
AccurateRip Summary (DiscID: 0017bee5-00b3e99e-7d0cb40a) Track 01 : OK (v1+v2, confidence 35/35, with different offset) Track 02 : OK (v1+v2, confidence 35/35, with different offset) Track 03 : OK (v1+v2, confidence 34/34, with different offset) Track 04 : OK (v1+v2, confidence 33/33, with different offset) Track 05 : OK (v1+v2, confidence 34/34, with different offset) Track 06 : OK (v1+v2, confidence 34/34, with different offset) Track 07 : OK (v1+v2, confidence 33/33, with different offset) Track 08 : OK (v1+v2, confidence 34/34, with different offset) Track 09 : OK (v1+v2, confidence 34/34, with different offset) Track 10 : OK (v1+v2, confidence 34/34, with different offset) ->All tracks accurately ripped.
All Tracks Album gain : 2.76 dB Peak : 0.794281 Statistics Read error : 0 Jitter error (maybe fixed) : 0 Retry sector count : 0 Damaged sector count : 0
Track 01 Filename : /Volumes/Vault/encoded/Thomas Tallis - Tallis: Lamentations Of Jeremiah (1987) [FLAC]/01 Tallis: Lamentations Of Jeremiah - Incipit Lamentatione.flac Pre-gap length : 00:02:33
Track gain : 3.58 dB Peak : 0.537292 CRC32 hash (test run) : 0C8B3C18 CRC32 hash : 0C8B3C18 CRC32 hash (skip zero) : 81A24AF2 AccurateRip v1 signature : B3087A48 (57BC7B0E w/correction) AccurateRip v2 signature : FD11E614 (2703EBDC w/correction) ->Accurately ripped with different offset (v1+v2, confidence 31+4/35, offset +1331) Statistics Read error : 0 Jitter error (maybe fixed) : 0 Retry sector count : 0 Damaged sector count : 0
Track 02 Filename : /Volumes/Vault/encoded/Thomas Tallis - Tallis: Lamentations Of Jeremiah (1987) [FLAC]/02 Tallis: Lamentations Of Jeremiah - De Lamentatione.flac Pre-gap length : 00:05:25
Track gain : 3.21 dB Peak : 0.571472 CRC32 hash (test run) : C6BAE8D4 CRC32 hash : C6BAE8D4 CRC32 hash (skip zero) : FE3ED286 AccurateRip v1 signature : AC1BA2A9 (6EC8BDDA w/correction) AccurateRip v2 signature : 548B73FF (D5703F04 w/correction) ->Accurately ripped with different offset (v1+v2, confidence 31+4/35, offset +1331) Statistics Read error : 0 Jitter error (maybe fixed) : 0 Retry sector count : 0 Damaged sector count : 0
Track 03 Filename : /Volumes/Vault/encoded/Thomas Tallis - Tallis: Lamentations Of Jeremiah (1987) [FLAC]/03 Tallis: Salvator Mundi.flac Pre-gap length : 00:06:45
Track gain : 0.04 dB Peak : 0.640747 CRC32 hash (test run) : E3031F80 CRC32 hash : E3031F80 CRC32 hash (skip zero) : 5F7A4E97 AccurateRip v1 signature : E34CD991 (14B53E68 w/correction) AccurateRip v2 signature : A3DE086A (1AA81FB7 w/correction) ->Accurately ripped with different offset (v1+v2, confidence 30+4/34, offset +1331) Statistics Read error : 0 Jitter error (maybe fixed) : 0 Retry sector count : 0 Damaged sector count : 0
Track 04 Filename : /Volumes/Vault/encoded/Thomas Tallis - Tallis: Lamentations Of Jeremiah (1987) [FLAC]/04 Tallis: O Sacrum Convivium.flac Pre-gap length : 00:03:50
Track gain : 0.89 dB Peak : 0.617554 CRC32 hash (test run) : 64EF4E16 CRC32 hash : 64EF4E16 CRC32 hash (skip zero) : 7BF5523B AccurateRip v1 signature : 41CB0C2F (9A48DB46 w/correction) AccurateRip v2 signature : 47FFF503 (9AC63B02 w/correction) ->Accurately ripped with different offset (v1+v2, confidence 29+4/33, offset +1331) Statistics Read error : 0 Jitter error (maybe fixed) : 0 Retry sector count : 0 Damaged sector count : 0
Track 05 Filename : /Volumes/Vault/encoded/Thomas Tallis - Tallis: Lamentations Of Jeremiah (1987) [FLAC]/05 Tallis: Mass For Four Voices - Gloria.flac Pre-gap length : 00:05:70
Track gain : 2.58 dB Peak : 0.455994 CRC32 hash (test run) : 02C0258B CRC32 hash : 02C0258B CRC32 hash (skip zero) : D0E21455 AccurateRip v1 signature : 3A26ADF8 (C06EE8DA w/correction) AccurateRip v2 signature : DC10595C (79EBE95B w/correction) ->Accurately ripped with different offset (v1+v2, confidence 30+4/34, offset +1331) Statistics Read error : 0 Jitter error (maybe fixed) : 0 Retry sector count : 0 Damaged sector count : 0
Track 06 Filename : /Volumes/Vault/encoded/Thomas Tallis - Tallis: Lamentations Of Jeremiah (1987) [FLAC]/06 Tallis: Mass For Four Voices - Credo.flac Pre-gap length : 00:00:70
Track gain : 2.88 dB Peak : 0.607422 CRC32 hash (test run) : B759819F CRC32 hash : B759819F CRC32 hash (skip zero) : D35495EB AccurateRip v1 signature : 1AC3F7D1 (B4153BA4 w/correction) AccurateRip v2 signature : 586E0F54 (46A0F8DF w/correction) ->Accurately ripped with different offset (v1+v2, confidence 30+4/34, offset +1331) Statistics Read error : 0 Jitter error (maybe fixed) : 0 Retry sector count : 0 Damaged sector count : 0
Track 07 Filename : /Volumes/Vault/encoded/Thomas Tallis - Tallis: Lamentations Of Jeremiah (1987) [FLAC]/07 Tallis: Mass For Four Voices - Sanctus.flac Pre-gap length : 00:01:43
Track gain : 3.13 dB Peak : 0.444580 CRC32 hash (test run) : A85FBB58 CRC32 hash : A85FBB58 CRC32 hash (skip zero) : 7BAC818E AccurateRip v1 signature : FAAEDF39 (B2D2C455 w/correction) AccurateRip v2 signature : A2140DC7 (8335C2A2 w/correction) ->Accurately ripped with different offset (v1+v2, confidence 29+4/33, offset +1331) Statistics Read error : 0 Jitter error (maybe fixed) : 0 Retry sector count : 0 Damaged sector count : 0
Track 08 Filename : /Volumes/Vault/encoded/Thomas Tallis - Tallis: Lamentations Of Jeremiah (1987) [FLAC]/08 Tallis: Mass For Four Voices - Benedictus.flac
Track gain : 5.26 dB Peak : 0.337250 CRC32 hash (test run) : 4272B2A1 CRC32 hash : 4272B2A1 CRC32 hash (skip zero) : 59F0AA82 AccurateRip v1 signature : D00A78FC (8E7BB1F5 w/correction) AccurateRip v2 signature : 24708D53 (1C14AB32 w/correction) ->Accurately ripped with different offset (v1+v2, confidence 30+4/34, offset +1331) Statistics Read error : 0 Jitter error (maybe fixed) : 0 Retry sector count : 0 Damaged sector count : 0
Track 09 Filename : /Volumes/Vault/encoded/Thomas Tallis - Tallis: Lamentations Of Jeremiah (1987) [FLAC]/09 Tallis: Mass For Four Voices - Agnus Dei.flac Pre-gap length : 00:03:62
Track gain : 4.90 dB Peak : 0.365662 CRC32 hash (test run) : 7F2656C9 CRC32 hash : 7F2656C9 CRC32 hash (skip zero) : 7F2F052D AccurateRip v1 signature : 8D329715 (05996E02 w/correction) AccurateRip v2 signature : 00FE4E1F (A90F86D3 w/correction) ->Accurately ripped with different offset (v1+v2, confidence 30+4/34, offset +1331) Statistics Read error : 0 Jitter error (maybe fixed) : 0 Retry sector count : 0 Damaged sector count : 0
Track 10 Filename : /Volumes/Vault/encoded/Thomas Tallis - Tallis: Lamentations Of Jeremiah (1987) [FLAC]/10 Tallis: Absterge Domine.flac Pre-gap length : 00:05:02
Track gain : 2.51 dB Peak : 0.794281 CRC32 hash (test run) : A9252679 CRC32 hash : A9252679 CRC32 hash (skip zero) : A599DB0C AccurateRip v1 signature : 8BB82D55 (24700E94 w/correction) AccurateRip v2 signature : A93F33DB (62118F11 w/correction) ->Accurately ripped with different offset (v1+v2, confidence 30+4/34, offset +1331) Statistics Read error : 0 Jitter error (maybe fixed) : 0 Retry sector count : 0 Damaged sector count : 0
No errors occurred
End of status report

Содержание индексной карты (.CUE)

TITLE "Lamentations Of Jeremiah"PERFORMER "The Hilliard Ensemble"CATALOG 0042283330825REM DATE "1987"REM DISCID 7D0CB40AREM REPLAYGAIN_ALBUM_GAIN 2.76 dBREM REPLAYGAIN_ALBUM_PEAK 0.794281FILE "01. Lamentations Of Jeremiah. Incipit Lamentatio.flac" WAVE TRACK 01 AUDIO TITLE "Lamentations Of Jeremiah: Incipit Lamentatio" PERFORMER "The Hilliard Ensemble" ISRC DEB338634101 REM REPLAYGAIN_TRACK_GAIN 3.58 dB REM REPLAYGAIN_TRACK_PEAK 0.537292 INDEX 00 00:00:00 INDEX 01 00:00:33 TRACK 02 AUDIO TITLE "Lamentations Of Jeremiah: De Lamentatione" PERFORMER "The Hilliard Ensemble" ISRC DEB338634102 REM REPLAYGAIN_TRACK_GAIN 3.21 dB REM REPLAYGAIN_TRACK_PEAK 0.571472 INDEX 00 08:42:70FILE "02. Lamentations Of Jeremiah. De Lamentatione.flac" WAVE INDEX 01 00:00:00 TRACK 03 AUDIO TITLE "Salvator Mundi" PERFORMER "The Hilliard Ensemble" ISRC DEB338634103 REM REPLAYGAIN_TRACK_GAIN 0.04 dB REM REPLAYGAIN_TRACK_PEAK 0.640747 INDEX 00 12:50:45FILE "03. Salvator Mundi.flac" WAVE INDEX 01 00:00:00 TRACK 04 AUDIO TITLE "O Sacrum Convivium" PERFORMER "The Hilliard Ensemble" ISRC DEB338634104 REM REPLAYGAIN_TRACK_GAIN 0.89 dB REM REPLAYGAIN_TRACK_PEAK 0.617554 INDEX 00 02:45:20FILE "04. O Sacrum Convivium.flac" WAVE INDEX 01 00:00:00 TRACK 05 AUDIO TITLE "Mass For Four Voices: Gloria" PERFORMER "The Hilliard Ensemble" ISRC DEB338634105 REM REPLAYGAIN_TRACK_GAIN 2.58 dB REM REPLAYGAIN_TRACK_PEAK 0.455994 INDEX 00 03:42:35FILE "05. Mass For Four Voices. Gloria.flac" WAVE INDEX 01 00:00:00 TRACK 06 AUDIO TITLE "Mass For Four Voices: Credo" PERFORMER "The Hilliard Ensemble" ISRC DEB338634106 REM REPLAYGAIN_TRACK_GAIN 2.88 dB REM REPLAYGAIN_TRACK_PEAK 0.607422 INDEX 00 05:03:23FILE "06. Mass For Four Voices. Credo.flac" WAVE INDEX 01 00:00:00 TRACK 07 AUDIO TITLE "Mass For Four Voices: Sanctus" PERFORMER "The Hilliard Ensemble" ISRC DEB338634107 REM REPLAYGAIN_TRACK_GAIN 3.13 dB REM REPLAYGAIN_TRACK_PEAK 0.444580 INDEX 00 05:41:12FILE "07. Mass For Four Voices. Sanctus.flac" WAVE INDEX 01 00:00:00FILE "08. Mass For Four Voices. Benedictus.flac" WAVE TRACK 08 AUDIO TITLE "Mass For Four Voices: Benedictus" PERFORMER "The Hilliard Ensemble" ISRC DEB338634108 REM REPLAYGAIN_TRACK_GAIN 5.26 dB REM REPLAYGAIN_TRACK_PEAK 0.337250 INDEX 01 00:00:00 TRACK 09 AUDIO TITLE "Mass For Four Voices: Agnus Dei" PERFORMER "The Hilliard Ensemble" ISRC DEB338634109 REM REPLAYGAIN_TRACK_GAIN 4.90 dB REM REPLAYGAIN_TRACK_PEAK 0.365662 INDEX 00 02:33:03FILE "09. Mass For Four Voices. Agnus Dei.flac" WAVE INDEX 01 00:00:00 TRACK 10 AUDIO TITLE "Absterge Domine" PERFORMER "The Hilliard Ensemble" ISRC DEB338634110 REM REPLAYGAIN_TRACK_GAIN 2.51 dB REM REPLAYGAIN_TRACK_PEAK 0.794281 INDEX 00 03:57:28FILE "10. Absterge Domine.flac" WAVE INDEX 01 00:00:00
[teatrix.ru].t7853.torrent 
Торрент: Зарегистрирован [ 2015-10-14 02:42 ] · A8E085891BBEE25274CC7CA8B8A8A89028D7B412

Скачать .torrent

Скачать

18 KB

Статус: проверено
Скачан: 0 раз
Размер: 216 MB
terms.php



Быстрый ответ

Имя:

      
Для отправки сообщений необходимо включить JavaScript
Показать сообщения:    

Текущее время: 09-Дек 18:27

Часовой пояс: UTC + 3


Вы можете начинать темы
Вы можете отвечать на сообщения
Вы не можете редактировать свои сообщения
Вы не можете удалять свои сообщения
Вы не можете голосовать в опросах
Вы не можете прикреплять файлы к сообщениям
Вы можете скачивать файлы