(Classical/Choral) Wolfgang Amadeus Mozart - Requiem [completetion by Masato Suzuki] & Vesperae solennes de confessore (Sampson, Kielland, Sakurada, Immler - Bach Collegium Japan, Masaaki Suzuki) - 2014, FLAC (image+.cue) lossless


Статистика раздачи [Обновить пиров]
Размер:  419 MB   |    Зарегистрирован:  1 год 1 месяц   |    Скачан:  0 раз

Полного источника не было: Никогда

 
   
 
 
 

[Цитировать]

Wolfgang Amadeus Mozart - Requiem & Vesperae solennes
Жанр: Classical/Choral
Страна-производитель диска: EU
Год издания диска: 2014
Издатель (лейбл): BIS Records
Номер по каталогу: BIS-2091 SACD
Дата записи: XII.2013
Аудиокодек: FLAC
Тип рипа: image+.cue
Битрейт аудио: lossless
Продолжительность: 1:14'34"
Источник: собственный рип
Наличие сканов в содержимом раздачи: да
Треклист:
Requiem K626
01. I. Introitus
02. II. Kyrie
03. III. Sequentia: 1. Dies irae
04. III. Sequentia: 2. Tuba mirum
05. III. Sequentia: 3. Rex tremendae
06. III. Sequentia: 4. Recordare
07. III. Sequentia: 5. Confutatis
08. III. Sequentia: 6. Lacrimosa
09. III. Sequentia: 7. Amen
10. IV. Offertorium: 1. Domine Jesu
11. IV. Offertorium: 2. Hostias
12. V. Sanctus
13. VI. Benedictus
14. VII. Agnus Dei
15. VIII. Communio: Lux aeterna
Vesperae solennes de confessore K339
16. I. Dixit Dominus
17. II. Confitebor
18. III. Beatus vir
19. IV. Laudate pueri
20. V. Laudate Dominum
21. VI. Magnificat
Requiem K626
22. Tuba mirum (alternative version)
Исполнители:
Carolin Sampson, soprano
Marianne B. Kielland, mezzo-soprano
Makoto Sakurada, tenor
Christian Immler, baritone
Bach Collegium Japan
Masaaki Suzuki
-

Лог создания рипа

Exact Audio Copy V1.0 beta 4 from 7. December 2014
EAC extraction logfile from 1. April 2015, 21:20
Wolfgang Amadeus Mozart / Requiem & Vesperae solennes
Used drive : TSSTcorpDVDWBD TS-LB23A Adapter: 1 ID: 0
Read mode : SecureUtilize accurate stream : YesDefeat audio cache : YesMake use of C2 pointers : No
Read offset correction : 6Overread into Lead-In and Lead-Out : NoFill up missing offset samples with silence : YesDelete leading and trailing silent blocks : NoNull samples used in CRC calculations : YesUsed interface : Native Win32 interface for Win NT & 2000
Used output format : User Defined EncoderSelected bitrate : 128 kBit/sQuality : HighAdd ID3 tag : YesCommand line compressor : C:\Program Files (x86)\Exact Audio Copy\Flac\flac.exeAdditional command line options : -T "COMMENT=Ripped by GFox" -V -8 %source%
TOC of the extracted CD
Track | Start | Length | Start sector | End sector --------------------------------------------------------- 1 | 0:00.00 | 4:25.18 | 0 | 19892 2 | 4:25.18 | 2:19.31 | 19893 | 30348 3 | 6:44.49 | 1:57.64 | 30349 | 39187 4 | 8:42.38 | 2:49.49 | 39188 | 51911 5 | 11:32.12 | 1:59.21 | 51912 | 60857 6 | 13:31.33 | 4:06.01 | 60858 | 79308 7 | 17:37.34 | 2:19.19 | 79309 | 89752 8 | 19:56.53 | 3:06.27 | 89753 | 103729 9 | 23:03.05 | 1:05.43 | 103730 | 108647 10 | 24:08.48 | 3:12.37 | 108648 | 123084 11 | 27:21.10 | 3:21.44 | 123085 | 138203 12 | 30:42.54 | 1:24.45 | 138204 | 144548 13 | 32:07.24 | 5:12.26 | 144549 | 167974 14 | 37:19.50 | 3:37.09 | 167975 | 184258 15 | 40:56.59 | 5:20.12 | 184259 | 208270 16 | 46:16.71 | 4:12.64 | 208271 | 227234 17 | 50:29.60 | 4:12.54 | 227235 | 246188 18 | 54:42.39 | 4:48.00 | 246189 | 267788 19 | 59:30.39 | 3:10.53 | 267789 | 282091 20 | 62:41.17 | 4:10.04 | 282092 | 300845 21 | 66:51.21 | 4:24.37 | 300846 | 320682 22 | 71:15.58 | 3:19.02 | 320683 | 335609
Range status and errors
Selected range
Filename D:\Downloads\Wolfgang Amadeus Mozart - Requiem & Vesperae solennes.wav
Peak level 97.4 % Extraction speed 1.9 X Range quality 100.0 % Test CRC 9D541B7B Copy CRC 9D541B7B Copy OK
No errors occurred
AccurateRip summary
Track 1 accurately ripped (confidence 4) [DC0CED2F] (AR v2)Track 2 accurately ripped (confidence 4) [57CE6D6B] (AR v2)Track 3 accurately ripped (confidence 4) [CF15E8C5] (AR v2)Track 4 accurately ripped (confidence 4) [5A2EB7AD] (AR v2)Track 5 accurately ripped (confidence 4) [1C1DFE55] (AR v2)Track 6 accurately ripped (confidence 4) [9CE02183] (AR v2)Track 7 accurately ripped (confidence 4) [630C48CF] (AR v2)Track 8 accurately ripped (confidence 4) [99D9C2FB] (AR v2)Track 9 accurately ripped (confidence 4) [3AC3040A] (AR v2)Track 10 accurately ripped (confidence 4) [B33720B6] (AR v2)Track 11 accurately ripped (confidence 4) [51F38DD9] (AR v2)Track 12 accurately ripped (confidence 4) [B65BEBF2] (AR v2)Track 13 accurately ripped (confidence 4) [11F710BC] (AR v2)Track 14 accurately ripped (confidence 4) [E9904A71] (AR v2)Track 15 accurately ripped (confidence 4) [1DFE9932] (AR v2)Track 16 accurately ripped (confidence 4) [453102D9] (AR v2)Track 17 accurately ripped (confidence 4) [0CF5F203] (AR v2)Track 18 accurately ripped (confidence 4) [311DEB29] (AR v2)Track 19 accurately ripped (confidence 4) [2C90C20E] (AR v2)Track 20 accurately ripped (confidence 4) [FA6186C6] (AR v2)Track 21 accurately ripped (confidence 4) [F2EA7308] (AR v2)Track 22 accurately ripped (confidence 4) [4ED322BB] (AR v2)
All tracks accurately ripped
End of status report
==== Log checksum 193489784707B5F9421D8BEF0C2A64E11606DF44A03993F926AB2047BC15C4E0 ====
-Доп. информация: Вслед за блистательным циклом баховских кантат Масааки Сузуки представляет свежую трактовку Реквиема Моцарта в новейшей версии Масато Сузуки.-
[teatrix.ru].t7854.torrent 
Торрент: Зарегистрирован [ 2015-10-14 02:42 ] · A219421BF4474A388DF13CA9D12B1661C266E8EA

Скачать .torrent

Скачать

17 KB

Статус: проверено
Скачан: 0 раз
Размер: 419 MB
terms.php



Быстрый ответ

Имя:

      
Для отправки сообщений необходимо включить JavaScript
Показать сообщения:    

Текущее время: 02-Дек 21:06

Часовой пояс: UTC + 3


Вы можете начинать темы
Вы можете отвечать на сообщения
Вы не можете редактировать свои сообщения
Вы не можете удалять свои сообщения
Вы не можете голосовать в опросах
Вы не можете прикреплять файлы к сообщениям
Вы можете скачивать файлы