(Classical) Сергей Рахманинов (Rachmaninov, Rachmaninoff) - Всенощное бдение - Netherlands Radio Choir, Kaspars Putnins - 2014, FLAC (image+.cue) lossless


Статистика раздачи [Обновить пиров]
Размер:  213 MB   |    Зарегистрирован:  1 год 1 месяц   |    Скачан:  0 раз

Полного источника не было: Никогда

 
   
 
 
 

[Цитировать]

Сергей Рахманинов - Всенощное бдение - Netherlands Radio Choir, Kaspars Putniņš
Жанр: Classical
Страна-производитель диска: Sweden
Год издания диска: 2014
Издатель (лейбл): BIS
Номер по каталогу: BIS-SACD-2039
Дата записи: 2012
Аудиокодек: FLAC
Тип рипа: image+.cue
Битрейт аудио: lossless
Продолжительность: 60:20
Источник: собственный рип
Наличие сканов в содержимом раздачи: да
Треклист:
Сергей Васильевич Рахманинов (1873-1943)
[1]-[15] Всенощное бдение, Op. 37 (1915)
[16] В молитвах неусыпающую Богородицу (1893)
Исполнители:
Netherlands Radio Choir
Kaspars Putniņš
conductor

Лог создания рипа

Exact Audio Copy V1.0 beta 3 from 29. August 2011
EAC extraction logfile from 14. March 2015, 17:58
Netherlands Radio Choir, Kaspars Putnins / Rachmaninov - Vespers
Used drive : HL-DT-STDVDRAM GU70N Adapter: 0 ID: 0
Read mode : SecureUtilize accurate stream : YesDefeat audio cache : YesMake use of C2 pointers : No
Read offset correction : 48Overread into Lead-In and Lead-Out : NoFill up missing offset samples with silence : YesDelete leading and trailing silent blocks : NoNull samples used in CRC calculations : YesUsed interface : Native Win32 interface for Win NT & 2000
Used output format : User Defined EncoderSelected bitrate : 128 kBit/sQuality : HighAdd ID3 tag : NoCommand line compressor : C:\Program Files (x86)\Exact Audio Copy\Flac\flac.exeAdditional command line options : -V -8 -T "Date=%year%" -T "Genre=%genre%" %source%
TOC of the extracted CD
Track | Start | Length | Start sector | End sector --------------------------------------------------------- 1 | 0:00.00 | 2:43.48 | 0 | 12272 2 | 2:43.48 | 4:07.04 | 12273 | 30801 3 | 6:50.52 | 4:11.25 | 30802 | 49651 4 | 11:02.02 | 2:48.21 | 49652 | 62272 5 | 13:50.23 | 3:26.49 | 62273 | 77771 6 | 17:16.72 | 2:57.70 | 77772 | 91116 7 | 20:14.67 | 2:11.15 | 91117 | 100956 8 | 22:26.07 | 2:08.71 | 100957 | 110627 9 | 24:35.03 | 5:58.25 | 110628 | 137502 10 | 30:33.28 | 2:32.42 | 137503 | 148944 11 | 33:05.70 | 6:23.13 | 148945 | 177682 12 | 39:29.08 | 6:20.25 | 177683 | 206207 13 | 45:49.33 | 1:41.05 | 206208 | 213787 14 | 47:30.38 | 2:49.05 | 213788 | 226467 15 | 50:19.43 | 1:37.01 | 226468 | 233743 16 | 51:56.44 | 8:23.33 | 233744 | 271501
Range status and errors
Selected range
Filename C:\temp\BIS-SACD-2039 - Rachmaninov - Vespers\Rachmaninov - Vespers.wav
Peak level 97.7 % Extraction speed 2.2 X Range quality 100.0 % Test CRC 9FF38ECB Copy CRC 9FF38ECB Copy OK
No errors occurred
AccurateRip summary
Track 1 accurately ripped (confidence 1) [EDB60861] (AR v2)Track 2 accurately ripped (confidence 1) [0BDEE250] (AR v2)Track 3 accurately ripped (confidence 1) [A2CF8FBF] (AR v2)Track 4 accurately ripped (confidence 1) [8E30F801] (AR v2)Track 5 accurately ripped (confidence 1) [5E8B540D] (AR v2)Track 6 accurately ripped (confidence 1) [8A3E9599] (AR v2)Track 7 accurately ripped (confidence 1) [7AC7602B] (AR v2)Track 8 accurately ripped (confidence 1) [9EBDFD69] (AR v2)Track 9 accurately ripped (confidence 1) [8FAE7EE8] (AR v2)Track 10 accurately ripped (confidence 1) [B212472C] (AR v2)Track 11 accurately ripped (confidence 1) [C6B73CD2] (AR v2)Track 12 accurately ripped (confidence 1) [21933857] (AR v2)Track 13 accurately ripped (confidence 1) [E0ED5427] (AR v2)Track 14 accurately ripped (confidence 1) [199344BE] (AR v2)Track 15 accurately ripped (confidence 1) [BB2AC3CB] (AR v2)Track 16 accurately ripped (confidence 1) [9D468583] (AR v2)
All tracks accurately ripped
End of status report
==== Log checksum F43300714FDDD76E6894C1FEE28E0400C95653672F930D8FE81974259B3A9F49 ====
[teatrix.ru].t7855.torrent 
Торрент: Зарегистрирован [ 2015-10-14 02:42 ] · 9F974977362A297DAE1A08C7350CD9824C8B89F1

Скачать .torrent

Скачать

34 KB

Статус: проверено
Скачан: 0 раз
Размер: 213 MB
terms.php



Быстрый ответ

Имя:

      
Для отправки сообщений необходимо включить JavaScript
Показать сообщения:    

Текущее время: 04-Дек 09:08

Часовой пояс: UTC + 3


Вы можете начинать темы
Вы можете отвечать на сообщения
Вы не можете редактировать свои сообщения
Вы не можете удалять свои сообщения
Вы не можете голосовать в опросах
Вы не можете прикреплять файлы к сообщениям
Вы можете скачивать файлы