(Classical) Benjamin Britten - Rejoice in the Lamb; Hymn to St Cecilia; Missa Brevis; Te Deum - Choir of St John\'s College, Cambridge, Christopher Robinson - 2000, FLAC (image+.cue) lossless


Статистика раздачи [Обновить пиров]
Размер:  255 MB   |    Зарегистрирован:  1 год 1 месяц   |    Скачан:  0 раз

Полного источника не было: Никогда

 
   
 
 
 

[Цитировать]

Benjamin Britten - Rejoice in the Lamb; Hymn to St Cecilia; Missa Brevis; Te Deum - Choir of St John's College, Cambridge, Christopher Robinson
Жанр: Classical
Год издания диска: 2000
Издатель (лейбл): Naxos
Номер по каталогу: 8.554791
Дата записи: 1999
Аудиокодек: FLAC
Тип рипа: image+.cue
Битрейт аудио: lossless
Продолжительность: 73:48
Источник: собственный рип
Наличие сканов в содержимом раздачи: да
Треклист:
Benjamin Britten (1913-1976)
[1]-[8] Rejoice in the Lamb
[9] Te Deum in C
[10] Jubilate Deo
[11] Antiphon
[12] A Hymn to the Virgin
[13] Festival Te Deum
[14]-[18] Missa Brevis in D
[19] Hymn to St Peter
[20] A Hymn of Saint Columba
[21] Prelude and Fugue on a theme of Vittoria
[22] Hymn to St Cecilia
Исполнители:
Choir of St John's College, Cambridge
Christopher Robinson

Лог создания рипа

Exact Audio Copy V1.0 beta 3 from 29. August 2011
EAC extraction logfile from 5. December 2014, 2:01
Choir of St John's College, Cambridge, Christopher Robinson / Britten - Rejoice in the Lamb
Used drive : HL-DT-STDVDRAM GU70N Adapter: 0 ID: 0
Read mode : SecureUtilize accurate stream : YesDefeat audio cache : YesMake use of C2 pointers : No
Read offset correction : 48Overread into Lead-In and Lead-Out : NoFill up missing offset samples with silence : YesDelete leading and trailing silent blocks : NoNull samples used in CRC calculations : YesUsed interface : Native Win32 interface for Win NT & 2000
Used output format : User Defined EncoderSelected bitrate : 128 kBit/sQuality : HighAdd ID3 tag : NoCommand line compressor : C:\Program Files (x86)\Exact Audio Copy\Flac\flac.exeAdditional command line options : -V -8 -T "Date=%year%" -T "Genre=%genre%" %source%
TOC of the extracted CD
Track | Start | Length | Start sector | End sector --------------------------------------------------------- 1 | 0:00.00 | 3:50.17 | 0 | 17266 2 | 3:50.17 | 2:12.13 | 17267 | 27179 3 | 6:02.30 | 0:57.55 | 27180 | 31509 4 | 7:00.10 | 1:56.60 | 31510 | 40269 5 | 8:56.70 | 2:26.20 | 40270 | 51239 6 | 11:23.15 | 1:01.15 | 51240 | 55829 7 | 12:24.30 | 2:31.32 | 55830 | 67186 8 | 14:55.62 | 1:12.20 | 67187 | 72606 9 | 16:08.07 | 7:30.23 | 72607 | 106379 10 | 23:38.30 | 2:40.15 | 106380 | 118394 11 | 26:18.45 | 5:09.37 | 118395 | 141606 12 | 31:28.07 | 3:08.33 | 141607 | 155739 13 | 34:36.40 | 6:04.72 | 155740 | 183111 14 | 40:41.37 | 1:29.20 | 183112 | 189806 15 | 42:10.57 | 2:51.03 | 189807 | 202634 16 | 45:01.60 | 1:13.00 | 202635 | 208109 17 | 46:14.60 | 1:31.30 | 208110 | 214964 18 | 47:46.15 | 2:09.07 | 214965 | 224646 19 | 49:55.22 | 5:32.63 | 224647 | 249609 20 | 55:28.10 | 2:25.35 | 249610 | 260519 21 | 57:53.45 | 5:34.37 | 260520 | 285606 22 | 63:28.07 | 10:18.25 | 285607 | 331981
Range status and errors
Selected range
Filename C:\temp\Naxos_8.554791 - Britten - Rejoice in the Lamb; Hymn to St Cecilia\Britten - Rejoice in the Lamb.wav
Peak level 87.7 % Extraction speed 2.3 X Range quality 100.0 % Test CRC 11C80239 Copy CRC 11C80239 Copy OK
No errors occurred
AccurateRip summary
Track 1 accurately ripped (confidence 6) [02A0BD8B] (AR v2)Track 2 accurately ripped (confidence 6) [520FC938] (AR v2)Track 3 accurately ripped (confidence 6) [7D08A236] (AR v2)Track 4 accurately ripped (confidence 6) [A8CB7C1B] (AR v2)Track 5 accurately ripped (confidence 6) [CB05776B] (AR v2)Track 6 accurately ripped (confidence 6) [CAAEC5D3] (AR v2)Track 7 accurately ripped (confidence 6) [4ED792DF] (AR v2)Track 8 accurately ripped (confidence 6) [89231C1B] (AR v2)Track 9 accurately ripped (confidence 6) [ECE29AF9] (AR v2)Track 10 accurately ripped (confidence 6) [39D9731A] (AR v2)Track 11 accurately ripped (confidence 6) [881707F6] (AR v2)Track 12 accurately ripped (confidence 6) [CAC5600B] (AR v2)Track 13 accurately ripped (confidence 6) [C886C240] (AR v2)Track 14 accurately ripped (confidence 6) [F6B2F650] (AR v2)Track 15 accurately ripped (confidence 6) [62AB51EB] (AR v2)Track 16 accurately ripped (confidence 6) [D934BF06] (AR v2)Track 17 accurately ripped (confidence 6) [DE9DF65D] (AR v2)Track 18 accurately ripped (confidence 6) [84D5ED3E] (AR v2)Track 19 accurately ripped (confidence 6) [6A13853A] (AR v2)Track 20 accurately ripped (confidence 6) [A71A400B] (AR v2)Track 21 accurately ripped (confidence 6) [D3F00D3D] (AR v2)Track 22 accurately ripped (confidence 6) [EB83EA63] (AR v2)
All tracks accurately ripped
End of status report
==== Log checksum BFC4C7FDBC9AF4B23F2D42D596AC37F743FC703E853E197751C68D00765E9CAE ====
[teatrix.ru].t7856.torrent 
Торрент: Зарегистрирован [ 2015-10-14 02:42 ] · 9731635F2227DDE5118E16BFBED11F6DDA6D37E4

Скачать .torrent

Скачать

41 KB

Статус: проверено
Скачан: 0 раз
Размер: 255 MB
terms.php



Быстрый ответ

Имя:

      
Для отправки сообщений необходимо включить JavaScript
Показать сообщения:    

Текущее время: 11-Дек 01:24

Часовой пояс: UTC + 3


Вы можете начинать темы
Вы можете отвечать на сообщения
Вы не можете редактировать свои сообщения
Вы не можете удалять свои сообщения
Вы не можете голосовать в опросах
Вы не можете прикреплять файлы к сообщениям
Вы можете скачивать файлы