(Choir / Sacred) А. Гречанинов - Страстная седмица / A. Grechaninov - The Seven Days of Passion (В. Полянский / V. Polyansky) - 1994, FLAC (image+.cue) lossless


Статистика раздачи [Обновить пиров]
Размер:  256 MB   |    Зарегистрирован:  1 год 1 месяц   |    Скачан:  0 раз

Полного источника не было: Никогда

 
   
 
 
 

[Цитировать]

А. Гречанинов - Страстная седмица / A. Grechaninov - The Seven Days of Passion
Жанр: Choir / Sacred
Страна-производитель диска: UK
Год издания диска: 1994
Издатель (лейбл): CHANDOS
Номер по каталогу: 9303
Дата записи: 1994
Аудиокодек: FLAC
Тип рипа: image+.cue
Битрейт аудио: lossless
Продолжительность: 00:59:22
Источник: собственный рип
Наличие сканов в содержимом раздачи: да
Треклист:
01. Sye zhenikh gryadet - Behold the bridegroom [3:38]
02. Chertog tvoi vizhdu Spasye - I see Thy bridal chamber [1:51]
03. Vo tsarstvii tvoyem - In The kingdom [6:50]
04. Svyetye tikhiy - O gladsome light [2:45]
05. Da ispravitsya molitva moya - Let my prayer be set forth [6:15]
06. Nyenye sily nyebyesnayya - Now the powers of heaven [5:32]
07. Vyecheri Tvoyeya tainyya - At Thy mystical supper [4:56]
08. Razboinika blagorazumnago - O Lord, this very day [2:10]
09. Tyebye odyeyustchyagosya - O Lord, in a single hair [3:58]
10. Bog Gospodi - The Lord is God [3:20]
11. Nue rydai mnenye, Mati - Weep not for me, O Mother [4:37]
12. Yelitsy vo Khrista - As many of you; Wieviel euer [6:35]
13. Da molchi fsyakaya plot - Let all mortal flesh [6:55]
Исполнители:
Russian State Symphonic Capella
Valery POLYANSKY, conductor

Лог создания рипа

Exact Audio Copy V1.0 beta 3 from 29. August 2011
EAC extraction logfile from 13. January 2015, 20:59
Russian State Symphonic Capella / Grechaninov - The Seven Days of Passion (Strastnaya sedmitsa)
Used drive : Optiarc DVD RW AD-7263S Adapter: 5 ID: 0
Read mode : SecureUtilize accurate stream : YesDefeat audio cache : YesMake use of C2 pointers : No
Read offset correction : 48Overread into Lead-In and Lead-Out : NoFill up missing offset samples with silence : YesDelete leading and trailing silent blocks : NoNull samples used in CRC calculations : YesUsed interface : Installed external ASPI interface
Used output format : User Defined EncoderSelected bitrate : 1024 kBit/sQuality : HighAdd ID3 tag : NoCommand line compressor : C:\Program Files (x86)\Exact Audio Copy\FLAC\FLAC.EXEAdditional command line options : -V -8 -T "Genre=%genre%" -T "Artist=%artist%" -T "Title=%title%" -T "Album=%albumtitle%" -T "Date=%year%" -T "Tracknumber=%tracknr%" -T "Comment=%comment%" %source%
TOC of the extracted CD
Track | Start | Length | Start sector | End sector --------------------------------------------------------- 1 | 0:00.00 | 3:40.27 | 0 | 16526 2 | 3:40.27 | 1:51.05 | 16527 | 24856 3 | 5:31.32 | 6:50.53 | 24857 | 55659 4 | 12:22.10 | 2:46.62 | 55660 | 68171 5 | 15:08.72 | 6:15.40 | 68172 | 96336 6 | 21:24.37 | 5:33.43 | 96337 | 121354 7 | 26:58.05 | 4:57.55 | 121355 | 143684 8 | 31:55.60 | 2:11.25 | 143685 | 153534 9 | 34:07.10 | 3:58.47 | 153535 | 171431 10 | 38:05.57 | 3:21.73 | 171432 | 186579 11 | 41:27.55 | 4:37.20 | 186580 | 207374 12 | 46:05.00 | 6:36.25 | 207375 | 237099 13 | 52:41.25 | 6:55.55 | 237100 | 268279
Range status and errors
Selected range
Filename D:\Музыка\lossless\Russian State Symphonic Capella - Grechaninov - The Seven Days of Passion (Strastnaya sedmitsa) - 1994\Russian State Symphonic Capella - Grechaninov - The Seven Days of Passion (Strastnaya sedmitsa).wav
Peak level 100.0 % Extraction speed 4.0 X Range quality 100.0 % Test CRC 2D478648 Copy CRC 2D478648 Copy OK
No errors occurred
AccurateRip summary
Track 1 accurately ripped (confidence 4) [BA033782] (AR v2)Track 2 accurately ripped (confidence 4) [BF91E8D7] (AR v2)Track 3 accurately ripped (confidence 4) [66386509] (AR v2)Track 4 accurately ripped (confidence 4) [C853D513] (AR v2)Track 5 accurately ripped (confidence 4) [FD300F15] (AR v2)Track 6 accurately ripped (confidence 4) [5FB1C984] (AR v2)Track 7 accurately ripped (confidence 4) [561F13EE] (AR v2)Track 8 accurately ripped (confidence 4) [B2B151B6] (AR v2)Track 9 accurately ripped (confidence 4) [EB993051] (AR v2)Track 10 accurately ripped (confidence 4) [239080A2] (AR v2)Track 11 accurately ripped (confidence 4) [C5C26CF5] (AR v2)Track 12 accurately ripped (confidence 4) [2BCB5EF0] (AR v2)Track 13 accurately ripped (confidence 4) [193A1A80] (AR v2)
All tracks accurately ripped
End of status report
==== Log checksum ED9A5B82B471A656BDAD8B13086E96AF2EEF2A5DBAE046F215195F22649BC73D ====

Содержание индексной карты (.CUE)

REM GENRE ChorusREM DATE 1994REM DISCID B20DF90DREM COMMENT "ExactAudioCopy v1.0b3"PERFORMER "Russian State Symphonic Capella"TITLE "Grechaninov - The Seven Days of Passion (Strastnaya sedmitsa)"FILE "Russian State Symphonic Capella - Grechaninov - The Seven Days of Passion (Strastnaya sedmitsa).flac" WAVE TRACK 01 AUDIO TITLE "Sye zhenikh gryadet / Behold the bridegroom" PERFORMER "Russian State Symphonic Capella" INDEX 01 00:00:00 TRACK 02 AUDIO TITLE "Chertog tvoi vizhdu Spasye / I see Thy bridal chamber" PERFORMER "Russian State Symphonic Capella" INDEX 00 03:39:02 INDEX 01 03:40:27 TRACK 03 AUDIO TITLE "Vo tsarstvii tvoyem / In Thy kingdom" PERFORMER "Russian State Symphonic Capella" INDEX 00 05:31:15 INDEX 01 05:31:32 TRACK 04 AUDIO TITLE "Svyetye tikhiy / O gladsome light" PERFORMER "Russian State Symphonic Capella" INDEX 00 12:21:42 INDEX 01 12:22:10 TRACK 05 AUDIO TITLE "Da ispravitsya molitva moya / Let my prayer be set forth" PERFORMER "Russian State Symphonic Capella" INDEX 00 15:07:32 INDEX 01 15:08:72 TRACK 06 AUDIO TITLE "Nyenye sily nyebyesnaya / Now the powers of heaven" PERFORMER "Russian State Symphonic Capella" INDEX 00 21:23:60 INDEX 01 21:24:37 TRACK 07 AUDIO TITLE "Vyecheri Tvoyeya tainyya / At Thy mystical supper" PERFORMER "Russian State Symphonic Capella" INDEX 00 26:56:30 INDEX 01 26:58:05 TRACK 08 AUDIO TITLE "Razboinika blagorazumnago / O Lord, this very day" PERFORMER "Russian State Symphonic Capella" INDEX 00 31:54:06 INDEX 01 31:55:60 TRACK 09 AUDIO TITLE "Tyebye odyeyustchyagosya / O Lord, in a single hair" PERFORMER "Russian State Symphonic Capella" INDEX 00 34:06:22 INDEX 01 34:07:10 TRACK 10 AUDIO TITLE "Bog Gospodi / The Lord is God" PERFORMER "Russian State Symphonic Capella" INDEX 00 38:05:35 INDEX 01 38:05:57 TRACK 11 AUDIO TITLE "Nye rydai myenye, Mati / Weep not for me, O Mother" PERFORMER "Russian State Symphonic Capella" INDEX 00 41:26:32 INDEX 01 41:27:55 TRACK 12 AUDIO TITLE "Yelitsy vo Khrista / As many of you" PERFORMER "Russian State Symphonic Capella" INDEX 00 46:04:50 INDEX 01 46:05:00 TRACK 13 AUDIO TITLE "Da molchi fsyakaya plot / Let all mortal flesh" PERFORMER "Russian State Symphonic Capella" INDEX 00 52:40:00 INDEX 01 52:41:25

Лог проверки качества

AUDIOCHECKER v2.0 beta (build 457) - by Dester - opdester@freemail.hu~~~~~~~~~~~~~~~~~~~~~~~~~~~~~~~~~~-=== DO NOT EDIT THIS FILE! ===-
Путь: ...\Russian State Symphonic Capella - Grechaninov - The Seven Days of Passion (Strastnaya sedmitsa) - 1994
1 -=- Russian State Symphonic Capella - Grechaninov - The Seven Days of Passion (Strastnaya sedmitsa).flac -=- CDDA (100%)
86482836
[teatrix.ru].t7857.torrent 
Торрент: Зарегистрирован [ 2015-10-14 02:42 ] · 0A8D322CE183912C41DB8A16B304F3910C15F779

Скачать .torrent

Скачать

12 KB

Статус: проверено
Скачан: 0 раз
Размер: 256 MB
terms.php



Быстрый ответ

Имя:

      
Для отправки сообщений необходимо включить JavaScript
Показать сообщения:    

Текущее время: 03-Дек 16:43

Часовой пояс: UTC + 3


Вы можете начинать темы
Вы можете отвечать на сообщения
Вы не можете редактировать свои сообщения
Вы не можете удалять свои сообщения
Вы не можете голосовать в опросах
Вы не можете прикреплять файлы к сообщениям
Вы можете скачивать файлы