(Classical) Handel - Chandos Anthems, Vol.2 (Lynne Dawson, Ian Partridge, The Sixteen, Harry Christophers) - 1989, FLAC (image+.cue) lossless


Статистика раздачи [Обновить пиров]
Размер:  260 MB   |    Зарегистрирован:  1 год 1 месяц   |    Скачан:  0 раз

Полного источника не было: Никогда

 
   
 
 
 

[Цитировать]

Handel - Chandos Anthems, Vol.2 (Harry Christophers)Торрент перезалит 13.03.2015 Жанр: Classical
Страна-производитель диска: England
Год издания диска: 1989
Издатель (лейбл): Chandos
Номер по каталогу: CHAN 0504
Дата записи: 1988
Аудиокодек: FLAC
Тип рипа: image+.cue
Битрейт аудио: lossless
Продолжительность: 58:30
Источник: собственный рип
сайт-источник/ник/другое: Из личной коллекции
Наличие сканов в содержимом раздачи: да
Треклист:

скрытый текст

Chandos Anthems, Vol. 2
George Frideric Handel (1685-1759)
Chandos Anthem No.4. 'O sing unto the Lord a new song' 14:36
1 Sonata 2:54
Soprano & Chorus
2 O sing unto the Lord a new song!… 1:55
…O sing unto the Lord all the whole earth.
Chorus
3 Declare his honour unto the heathen,… 2:39
…and his wonders unto all people. For the Lord is great, and cannot worthily be praised. He is more to be fear'd than all Gods.
Tenor
4 The waves of the sea rage horribly,… 1:36
…but yet the Lord who dwells on high is mightier.
Soprano & Tenor. Duet
5 O worship the Lord in the beauty of holiness. 3:16
Chorus
6 Let the whole earth stand in awe of him. 0:49
Chorus
7 Let the heav'ns rejoice, and let the earth be glad,… 1:27
…let the sea make a noise and all that therein is.
Chandos Anthem No. 5. 'I will magnify thee' 23:20
8 Sonata 3:38
Chorus
9 I will magnify thee, O God my King,… 1:46
…and I will praise thy name for ever and ever.
Tenor
10 Ev'ry day will I give thanks unto thee,… 3:32
…and praise thy name for ever and ever.
Chorus
11 One generation shall praise thy works… 2:05
…unto another, and declare thy pow'r.
Tenor
12 The Lord preserveth all them that love him,… 2:32
…but scatt'reth abroad all the ungodly.
Soprano
13 The Lord is righteous in all his ways,… 3:08
…and holy in all his works, he will fulfill the desire of them that fear him.
Tenor
14 Happy are the people that are in such a case;… 3:57
…blessed are the people who have the Lord for their God.
Tenor & Chorus
15 My mouth shall speak the praise of the Lord,… 2:42
…and let all flesh give thanks unto his holy name for ever and ever. Amen.
Chandos Anthem No.6. 'As pants the Hart for cooling streams' 20:14
16 Sonata 3:26
Chorus
17 As pants the hart for cooling streams,… 3:07
…so longs my soul for thee O God.
Soprano
18 Tears are my daily food,… 3:09
…while thus they say: where is now thy God?
Tenor
19 Now, when I think thereupon,… 1:33
…I pour out my heart by myself, for I went with the multitude and brought them out into the house of God.
Chorus
20 In the voice of praise and thanksgiving among such as keep holy-day. 1:40
Soprano & Tenor. Duet
21 Why so full of grief, O my soul? Why so disquieted within me? 4:23
Tenor & Chorus
22 Put thy trust in God, for I will praise him. 2:56
58:30
Исполнители:
Lynne Dawson soprano
Ian Partridge tenor
The Sixteen
The Sixteen Orchestra
Harry Christophers

Лог создания рипа

Exact Audio Copy V1.0 beta 3 from 29. August 2011
EAC extraction logfile from 20. January 2015, 20:25
Harry Christophers, The Sixteen Choir & Orc / Handel : Chandos Anthems Vol.2
Used drive : HL-DT-STDVDRAM GSA-T40N Adapter: 0 ID: 0
Read mode : SecureUtilize accurate stream : YesDefeat audio cache : YesMake use of C2 pointers : No
Read offset correction : 667Overread into Lead-In and Lead-Out : NoFill up missing offset samples with silence : YesDelete leading and trailing silent blocks : NoNull samples used in CRC calculations : YesUsed interface : Native Win32 interface for Win NT & 2000
Used output format : User Defined EncoderSelected bitrate : 32 kBit/sQuality : HighAdd ID3 tag : NoCommand line compressor : C:\Program Files\Exact Audio Copy\Flac\flac.exeAdditional command line options : -V -8 -T "Date=%year%" -T "Genre=%genre%" %source%
TOC of the extracted CD
Track | Start | Length | Start sector | End sector --------------------------------------------------------- 1 | 0:00.32 | 2:11.63 | 32 | 9919 2 | 2:12.20 | 1:59.47 | 9920 | 18891 3 | 4:11.67 | 2:12.35 | 18892 | 28826 4 | 6:24.27 | 2:37.33 | 28827 | 40634 5 | 9:01.60 | 3:12.45 | 40635 | 55079 6 | 12:14.30 | 2:43.22 | 55080 | 67326 7 | 14:57.52 | 1:34.55 | 67327 | 74431 8 | 16:32.32 | 3:12.43 | 74432 | 88874 9 | 19:45.00 | 3:54.37 | 88875 | 106461 10 | 23:39.37 | 4:06.25 | 106462 | 124936 11 | 27:45.62 | 2:34.10 | 124937 | 136496 12 | 30:19.72 | 2:44.38 | 136497 | 148834 13 | 33:04.35 | 2:22.20 | 148835 | 159504 14 | 35:26.55 | 1:35.45 | 159505 | 166674 15 | 37:02.25 | 2:05.17 | 166675 | 176066 16 | 39:07.42 | 2:20.63 | 176067 | 186629 17 | 41:28.30 | 3:35.37 | 186630 | 202791 18 | 45:03.67 | 3:58.40 | 202792 | 220681 19 | 49:02.32 | 2:56.18 | 220682 | 233899 20 | 51:58.50 | 0:43.45 | 233900 | 237169 21 | 52:42.20 | 1:35.67 | 237170 | 244361 22 | 54:18.12 | 2:16.40 | 244362 | 254601 23 | 56:34.52 | 2:40.15 | 254602 | 266616 24 | 59:14.67 | 1:55.68 | 266617 | 275309
Range status and errors
Selected range
Filename D:\Rip\Handel.Chandos_Anthems-Harry Christophers,The_Sixteen_Choir&Orc.,1998-90.4CD(Chandos)\Vol.2\Harry Christophers, The Sixteen Choir & Orc - Handel - Chandos Anthems Vol.2.wav
Peak level 93.3 % Extraction speed 4.2 X Range quality 100.0 % Test CRC 5161B1E5 Copy CRC 5161B1E5 Copy OK
No errors occurred
AccurateRip summary
Track 1 accurately ripped (confidence 25) [5FA1BE10] (AR v2)Track 2 accurately ripped (confidence 25) [D41B18F2] (AR v2)Track 3 accurately ripped (confidence 25) [23AAAACE] (AR v2)Track 4 accurately ripped (confidence 25) [01458EB8] (AR v2)Track 5 accurately ripped (confidence 25) [7D0FB8B5] (AR v2)Track 6 accurately ripped (confidence 25) [6F929964] (AR v2)Track 7 accurately ripped (confidence 25) [F9AE427F] (AR v2)Track 8 accurately ripped (confidence 25) [38E820C1] (AR v2)Track 9 accurately ripped (confidence 25) [EBC531E6] (AR v2)Track 10 accurately ripped (confidence 25) [0E03EBA8] (AR v2)Track 11 accurately ripped (confidence 25) [C23704ED] (AR v2)Track 12 accurately ripped (confidence 25) [0BC78741] (AR v2)Track 13 accurately ripped (confidence 25) [2CE9420D] (AR v2)Track 14 accurately ripped (confidence 25) [0750CA51] (AR v2)Track 15 accurately ripped (confidence 25) [6F9F42E4] (AR v2)Track 16 accurately ripped (confidence 25) [2B803D95] (AR v2)Track 17 accurately ripped (confidence 25) [2093A6F0] (AR v2)Track 18 accurately ripped (confidence 25) [0D42A651] (AR v2)Track 19 accurately ripped (confidence 25) [BDAB0831] (AR v2)Track 20 accurately ripped (confidence 25) [127BFBBD] (AR v2)Track 21 accurately ripped (confidence 25) [8D58BBEA] (AR v2)Track 22 accurately ripped (confidence 25) [0E51F2A0] (AR v2)Track 23 accurately ripped (confidence 25) [3FF3D7F2] (AR v2)Track 24 accurately ripped (confidence 24) [CA81CB47] (AR v2)
All tracks accurately ripped
End of status report
==== Log checksum FAD26351FE368131D6CCB7956EE09048516B8B98EC849F01FB32C31945611EE3 ====

Содержание индексной карты (.CUE)

REM GENRE ClassicalREM DATE 1987REM DISCID 630E5618REM COMMENT "ExactAudioCopy v1.0b3"PERFORMER "Harry Christophers, The Sixteen Choir & Orc"TITLE "Handel : Chandos Anthems Vol.1"FILE "Harry Christophers, The Sixteen Choir & Orc - Handel - Chandos Anthems Vol.2.flac" WAVE TRACK 01 AUDIO TITLE "Anthem No.1 - 'O be joyful in the Lord' (Psalm 100), HWV246 - 1. Sonata" PERFORMER "Harry Christophers, The Sixteen Choir & Orc" INDEX 00 00:00:00 INDEX 01 00:00:32 TRACK 02 AUDIO TITLE "Anthem No.1 - 'O be joyful in the Lord' (Psalm 100), HWV246 - 2. tenor & chor..." PERFORMER "Harry Christophers, The Sixteen Choir & Orc" INDEX 01 02:12:20 TRACK 03 AUDIO TITLE "Anthem No.1 - 'O be joyful in the Lord' (Psalm 100), HWV246 - 3. chorus: Serv..." PERFORMER "Harry Christophers, The Sixteen Choir & Orc" INDEX 01 04:11:67 TRACK 04 AUDIO TITLE "Anthem No.1 - 'O be joyful in the Lord' (Psalm 100), HWV246 - 4. soprano & te..." PERFORMER "Harry Christophers, The Sixteen Choir & Orc" INDEX 01 06:24:27 TRACK 05 AUDIO TITLE "Anthem No.1 - 'O be joyful in the Lord' (Psalm 100), HWV246 - 5. chorus: O go..." PERFORMER "Harry Christophers, The Sixteen Choir & Orc" INDEX 01 09:01:60 TRACK 06 AUDIO TITLE "Anthem No.1 - 'O be joyful in the Lord' (Psalm 100), HWV246 - 6. soprano, ten..." PERFORMER "Harry Christophers, The Sixteen Choir & Orc" INDEX 01 12:14:30 TRACK 07 AUDIO TITLE "Anthem No.1 - 'O be joyful in the Lord' (Psalm 100), HWV246 - 7. chorus: Glor..." PERFORMER "Harry Christophers, The Sixteen Choir & Orc" INDEX 01 14:57:52 TRACK 08 AUDIO TITLE "Anthem No.1 - 'O be joyful in the Lord' (Psalm 100), HWV246 - 8. chorus: As i..." PERFORMER "Harry Christophers, The Sixteen Choir & Orc" INDEX 01 16:32:32 TRACK 09 AUDIO TITLE "Anthem No.2 - 'In the ... trust' (Psalms 9, 11, 12, 13), HWV247 - 1. Sonata" PERFORMER "Harry Christophers, The Sixteen Choir & Orc" INDEX 00 19:37:15 INDEX 01 19:45:00 TRACK 10 AUDIO TITLE "Anthem No.2 - 'In the ... trust' (Psalms 9, 11, 12, 13), HWV247 - 2. chorus:..." PERFORMER "Harry Christophers, The Sixteen Choir & Orc" INDEX 01 23:39:37 TRACK 11 AUDIO TITLE "Anthem No.2 - 'In the ... trust' (Psalms 9, 11, 12, 13), HWV247 - 3. tenor: ..." PERFORMER "Harry Christophers, The Sixteen Choir & Orc" INDEX 01 27:45:62 TRACK 12 AUDIO TITLE "Anthem No.2 - 'In the ... trust' (Psalms 9, 11, 12, 13), HWV247 - 4. chorus:..." PERFORMER "Harry Christophers, The Sixteen Choir & Orc" INDEX 00 30:17:42 INDEX 01 30:19:72 TRACK 13 AUDIO TITLE "Anthem No.2 - 'In the ... trust' (Psalms 9, 11, 12, 13), HWV247 - 5. tenor: ..." PERFORMER "Harry Christophers, The Sixteen Choir & Orc" INDEX 00 33:03:27 INDEX 01 33:04:35 TRACK 14 AUDIO TITLE "Anthem No.2 - 'In the ... trust' (Psalms 9, 11, 12, 13), HWV247 - 6. chorus:..." PERFORMER "Harry Christophers, The Sixteen Choir & Orc" INDEX 01 35:26:55 TRACK 15 AUDIO TITLE "Anthem No.2 - 'In the ... trust' (Psalms 9, 11, 12, 13), HWV247 - 7. tenor: ..." PERFORMER "Harry Christophers, The Sixteen Choir & Orc" INDEX 01 37:02:25 TRACK 16 AUDIO TITLE "Anthem No.2 - 'In the ... trust' (Psalms 9, 11, 12, 13), HWV247 - 8. chorus:..." PERFORMER "Harry Christophers, The Sixteen Choir & Orc" INDEX 01 39:07:42 TRACK 17 AUDIO TITLE "Anthem No.3 - 'Have mercy upon me' (Psalm 51), HWV248 - 1. Sonata" PERFORMER "Harry Christophers, The Sixteen Choir & Orc" INDEX 00 41:22:42 INDEX 01 41:28:30 TRACK 18 AUDIO TITLE "Anthem No.3 - 'Have mercy upon me' (Psalm 51), HWV248 - 2. chorus: Have mercy..." PERFORMER "Harry Christophers, The Sixteen Choir & Orc" INDEX 00 45:02:20 INDEX 01 45:03:67 TRACK 19 AUDIO TITLE "Anthem No.3 - 'Have mercy upon me' (Psalm 51), HWV248 - 3. soprano & tenor. D..." PERFORMER "Harry Christophers, The Sixteen Choir & Orc" INDEX 01 49:02:32 TRACK 20 AUDIO TITLE "Anthem No.3 - 'Have mercy upon me' (Psalm 51), HWV248 - 4. tenor: For I ackno..." PERFORMER "Harry Christophers, The Sixteen Choir & Orc" INDEX 01 51:58:50 TRACK 21 AUDIO TITLE "Anthem No.3 - 'Have mercy upon me' (Psalm 51), HWV248 - 5. tenor: Against the..." PERFORMER "Harry Christophers, The Sixteen Choir & Orc" INDEX 01 52:42:20 TRACK 22 AUDIO TITLE "Anthem No.3 - 'Have mercy upon me' (Psalm 51), HWV248 - 6. chorus: Thou shalt..." PERFORMER "Harry Christophers, The Sixteen Choir & Orc" INDEX 01 54:18:12 TRACK 23 AUDIO TITLE "Anthem No.3 - 'Have mercy upon me' (Psalm 51), HWV248 - 7. soprano: Make me a..." PERFORMER "Harry Christophers, The Sixteen Choir & Orc" INDEX 00 56:33:70 INDEX 01 56:34:52 TRACK 24 AUDIO TITLE "Anthem No.3 - 'Have mercy upon me' (Psalm 51), HWV248 - 8. chorus: Then shall..." PERFORMER "Harry Christophers, The Sixteen Choir & Orc" INDEX 01 59:14:67
Доп. информация: Recorded in: St Jude on the Hill, Hampstead, London 11-13 November 1988
Handel - Chandos Anthems, Vol.1 - http://rutracker.org/forum/viewtopic.php?t=4948169
Handel - Chandos Anthems, Vol.2 - http://rutracker.org/forum/viewtopic.php?t=4948180
Handel - Chandos Anthems, Vol.3 - http://rutracker.org/forum/viewtopic.php?t=4948186
Handel - Chandos Anthems, Vol.4 - http://rutracker.org/forum/viewtopic.php?t=4948197
[teatrix.ru].t7858.torrent 
Торрент: Зарегистрирован [ 2015-10-14 02:42 ] · 68EBD0FA93381B809B7DC36E934FBE710F6584EB

Скачать .torrent

Скачать

12 KB

Статус: проверено
Скачан: 0 раз
Размер: 260 MB
terms.php



Быстрый ответ

Имя:

      
Для отправки сообщений необходимо включить JavaScript
Показать сообщения:    

Текущее время: 03-Дек 14:40

Часовой пояс: UTC + 3


Вы можете начинать темы
Вы можете отвечать на сообщения
Вы не можете редактировать свои сообщения
Вы не можете удалять свои сообщения
Вы не можете голосовать в опросах
Вы не можете прикреплять файлы к сообщениям
Вы можете скачивать файлы