(Classical) Handel - Chandos Anthems, Vol.1 (Lynne Dawson, Ian Partridge, Michael George, The Sixteen, Harry Christophers) - 1994, FLAC (image+.cue) lossless


Статистика раздачи [Обновить пиров]
Размер:  293 MB   |    Зарегистрирован:  1 год 1 месяц   |    Скачан:  0 раз

Полного источника не было: Никогда

 
   
 
 
 

[Цитировать]

Handel - Chandos Anthems, Vol.1 (Harry Christophers)Торрент перезалит 13.03.2015 Жанр: Classical
Страна-производитель диска: England
Год издания диска: 1994
Издатель (лейбл): Chandos
Номер по каталогу: CHAN 0503
Дата записи: 1987
Аудиокодек: FLAC
Тип рипа: image+.cue
Битрейт аудио: lossless
Продолжительность: 60:30
Источник: собственный рип
сайт-источник/ник/другое: Из личной коллекции
Наличие сканов в содержимом раздачи: да
Треклист:

скрытый текст

Chandos Anthems, Vol. 1
George Frideric Handel (1685-1759)
Chandos Anthem No.1. 'O, be joyful in the Lord' 19:39
1 Sonata 2:14
Tenor & Chorus
2 O be joyful in the Lord, all ye lands: 2:00
Chorus
3 Serve the Lord with gladness,… 2:12
…and come from his presence with a song.
Soprano & Duet
4 Be ye sure that the Lord he is God;… 2:36
…it is he that has made us, and now we ourselves; we are his people, and the sheep of his pasture.
Chorus
5 O go your way into his gates with thanksgiving,… 3:14
…and into his courts with praise: be thankful unto him, and speak good of his Name.
Soprano, Tenor & Bass. Trio
6 For the Lord is gracious,… 2:43
… his mercy is everlasting: and his truth endureth from generation to generation.
Chorus
7 Glory be to the Father,… 1:35
…glory be to the Son: and to the Holy Ghost.
Chorus
8 As it was in the beginning, is now,… 3:05
…and ever shall be; world without end. Amen.
Chandos Anthem No.2. 'In the Lord put I my trust' 21:46
9 Sonata 3:54
Chorus
10 In the Lord I put my trust!… 4:07
…How say you then to my soul she shall flee as a bird unto the hill?
Tenor
11 God is a constant sure defence against oppressing rage,… 2:70
…as troubles rise, his needful aids in our behalf egage.
Chorus
12 Behold! The wicked bend their bow,… 2:44
…and ready fix their dart, lurking in ambush to destroy the man of upright heart.
Tenor
13 But God, who hears the suff'ring pow'r,… 2:22
…and their oppression knows, will soon arise and give them rest in spite of all their foes.
Chorus
14 Snares, fire and brimstone on their heads… 1:36
…shall in one tempest show'r: this dreaful mixture his revenge into their cup shall pour.
Tenor
15 The righteous Lord will righteous deeds… 2:05
…with signal favour grace, and to the upright man disclose the brightness of his face.
Chorus
16 Then shall my song, with praise inspir'd,… 2:21
…to thee my God ascend, who to thy servants in distress such bounty didst extend.
Chandos Anthem No.3. 'Have mercy upon me' 19:34
17 Sonata 3:26
Chorus
18 Have mercy upon me, O God,… 3:59
…after thy great goodness: according to the multitude of thy mercies do away mine offences.
Soprano & Tenor. Duet
19 Wash me thoroughly from my wickedness:… 2:55
…and cleanse me from my sin.
Tenor
20 For I acknowledge my faults:… 0:44
…and my sin is ever before me.
Tenor
21 Against thee only have I sinned,… 1:36
…and done this evil in thy sight: that thou mightest be justified in thy saying, and clear'd when thou art judg'd.
Chorus
22 Thou shalt make me hear of joy and gladness… 2:16
… that the bones which thou hast broken may rejoice.
Soprano
23 Make me a clean heart, O God:… 2:41
…and renew a right spirit within me. Cast me not away from the presence: and take not thy holy spirit from me. OI give me the comfort of thy help again: and stablish me with thy free Spirit.
Chorus
24 Then shall I teach Thy ways unto the wicked:… 1:57
…and sinners shall be converted unto Thee.
60:30
Исполнители:
Lynne Dawson soprano
Ian Partridge tenor
Michael George bass
The Sixteen
The Sixteen Orchestra
Harry Christophers

Лог создания рипа

Exact Audio Copy V1.0 beta 3 from 29. August 2011
EAC extraction logfile from 21. January 2015, 20:15
Harry Christophers, The Sixteen Choir & Orc / Handel : Chandos Anthems Vol.1
Used drive : HL-DT-STDVDRAM GSA-T40N Adapter: 0 ID: 0
Read mode : SecureUtilize accurate stream : YesDefeat audio cache : YesMake use of C2 pointers : No
Read offset correction : 667Overread into Lead-In and Lead-Out : NoFill up missing offset samples with silence : YesDelete leading and trailing silent blocks : NoNull samples used in CRC calculations : YesUsed interface : Native Win32 interface for Win NT & 2000
Used output format : User Defined EncoderSelected bitrate : 32 kBit/sQuality : HighAdd ID3 tag : NoCommand line compressor : C:\Program Files\Exact Audio Copy\Flac\flac.exeAdditional command line options : -V -8 -T "Date=%year%" -T "Genre=%genre%" %source%
TOC of the extracted CD
Track | Start | Length | Start sector | End sector --------------------------------------------------------- 1 | 0:00.32 | 2:54.18 | 32 | 13099 2 | 2:54.50 | 1:54.45 | 13100 | 21694 3 | 4:49.20 | 2:39.40 | 21695 | 33659 4 | 7:28.60 | 1:35.70 | 33660 | 40854 5 | 9:04.55 | 3:15.70 | 40855 | 55549 6 | 12:20.50 | 0:49.05 | 55550 | 59229 7 | 13:09.55 | 1:36.40 | 59230 | 66469 8 | 14:46.20 | 3:38.37 | 66470 | 82856 9 | 18:24.57 | 1:46.28 | 82857 | 90834 10 | 20:11.10 | 3:31.35 | 90835 | 106694 11 | 23:42.45 | 2:06.10 | 106695 | 116154 12 | 25:48.55 | 2:31.20 | 116155 | 127499 13 | 28:20.00 | 3:07.30 | 127500 | 141554 14 | 31:27.30 | 3:57.40 | 141555 | 159369 15 | 35:24.70 | 2:51.25 | 159370 | 172219 16 | 38:16.20 | 3:26.25 | 172220 | 187694 17 | 41:42.45 | 3:07.22 | 187695 | 201741 18 | 44:49.67 | 3:08.28 | 201742 | 215869 19 | 47:58.20 | 1:32.70 | 215870 | 222839 20 | 49:31.15 | 1:40.35 | 222840 | 230374 21 | 51:11.50 | 4:22.57 | 230375 | 250081 22 | 55:34.32 | 2:55.50 | 250082 | 263256
Range status and errors
Selected range
Filename D:\Rip\Handel.Chandos_Anthems-Harry Christophers,The_Sixteen_Choir&Orc.,1998-90.4CD(Chandos)\Vol.1\Harry Christophers, The Sixteen Choir & Orc - Handel - Chandos Anthems Vol.1.wav
Peak level 97.7 % Extraction speed 4.2 X Range quality 100.0 % Test CRC 2746FE25 Copy CRC 2746FE25 Copy OK
No errors occurred
AccurateRip summary
Track 1 accurately ripped (confidence 4) [BC80D96C] (AR v2)Track 2 accurately ripped (confidence 4) [63F927AF] (AR v2)Track 3 accurately ripped (confidence 4) [2491F9BB] (AR v2)Track 4 accurately ripped (confidence 4) [15816602] (AR v2)Track 5 accurately ripped (confidence 4) [E04A4AD7] (AR v2)Track 6 accurately ripped (confidence 4) [A69FF5A8] (AR v2)Track 7 accurately ripped (confidence 4) [9B63D189] (AR v2)Track 8 accurately ripped (confidence 4) [1CAEA77B] (AR v2)Track 9 accurately ripped (confidence 4) [3FDF4843] (AR v2)Track 10 accurately ripped (confidence 4) [670F6160] (AR v2)Track 11 accurately ripped (confidence 4) [384CF371] (AR v2)Track 12 accurately ripped (confidence 4) [846633DC] (AR v2)Track 13 accurately ripped (confidence 4) [7B248F15] (AR v2)Track 14 accurately ripped (confidence 4) [4F5F64C8] (AR v2)Track 15 accurately ripped (confidence 4) [4E8EE9CA] (AR v2)Track 16 accurately ripped (confidence 4) [3F0373E3] (AR v2)Track 17 accurately ripped (confidence 4) [23B5F32D] (AR v2)Track 18 accurately ripped (confidence 4) [DD879E61] (AR v2)Track 19 accurately ripped (confidence 4) [2B0C1AA8] (AR v2)Track 20 accurately ripped (confidence 4) [D1C2B5F9] (AR v2)Track 21 accurately ripped (confidence 4) [A7D4AF10] (AR v2)Track 22 accurately ripped (confidence 4) [E9D20E24] (AR v2)
All tracks accurately ripped
End of status report
==== Log checksum FB4D9D68AB92F7F95405463A2895DB63C3BFC003B498B7B19FEDFCAFC937E1AD ====

Содержание индексной карты (.CUE)

REM GENRE ClassicalREM DATE 1988REM DISCID 340DB616REM COMMENT "ExactAudioCopy v1.0b3"PERFORMER "Harry Christophers, The Sixteen Choir & Orc"TITLE "Handel : Chandos Anthems Vol.2"FILE "Harry Christophers, The Sixteen Choir & Orc - Handel - Chandos Anthems Vol.1" WAVE TRACK 01 AUDIO TITLE "Anthem No.4 - 'O sing ... song' (Psalm 93, 96), HWV249 - 1. Sonata" PERFORMER "Harry Christophers, The Sixteen Choir & Orc" INDEX 00 00:00:00 INDEX 01 00:00:32 TRACK 02 AUDIO TITLE "2. soprano & chorus: O sing unto the Lord a new song!..." PERFORMER "Harry Christophers, The Sixteen Choir & Orc" INDEX 01 02:54:50 TRACK 03 AUDIO TITLE "3. chorus: Declare his honour unto the heathen..." PERFORMER "Harry Christophers, The Sixteen Choir & Orc" INDEX 01 04:49:20 TRACK 04 AUDIO TITLE "4. tenor: The waves of the sea rage horribly..." PERFORMER "Harry Christophers, The Sixteen Choir & Orc" INDEX 01 07:28:60 TRACK 05 AUDIO TITLE "5. soprano & tenor. Duet: O worship the Lord in the beauty of holiness..." PERFORMER "Harry Christophers, The Sixteen Choir & Orc" INDEX 01 09:04:55 TRACK 06 AUDIO TITLE "6. chorus: Let the whole earth stand in awe of him..." PERFORMER "Harry Christophers, The Sixteen Choir & Orc" INDEX 01 12:20:50 TRACK 07 AUDIO TITLE "7. chorus: Let the heav'ns rejoice..." PERFORMER "Harry Christophers, The Sixteen Choir & Orc" INDEX 01 13:09:55 TRACK 08 AUDIO TITLE "Anthem No.5 - 'I will magnify thee' (Psalm 144, 145), HWV250 - 1. Sonata" PERFORMER "Harry Christophers, The Sixteen Choir & Orc" INDEX 00 14:37:72 INDEX 01 14:46:20 TRACK 09 AUDIO TITLE "2. chorus: I will magnify thee O god my King..." PERFORMER "Harry Christophers, The Sixteen Choir & Orc" INDEX 01 18:24:57 TRACK 10 AUDIO TITLE "3. tenor: Ev'ry day will I give thanks unto thee..." PERFORMER "Harry Christophers, The Sixteen Choir & Orc" INDEX 01 20:11:10 TRACK 11 AUDIO TITLE "4. chorus: One generation shall praise thy works unto another..." PERFORMER "Harry Christophers, The Sixteen Choir & Orc" INDEX 01 23:42:45 TRACK 12 AUDIO TITLE "5. tenor: The Lord preserveth all them that love him..." PERFORMER "Harry Christophers, The Sixteen Choir & Orc" INDEX 01 25:48:55 TRACK 13 AUDIO TITLE "6. soprano: The Lord is righteous in all his ways..." PERFORMER "Harry Christophers, The Sixteen Choir & Orc" INDEX 01 28:20:00 TRACK 14 AUDIO TITLE "7. tenor: Happy are the people that are in such a case..." PERFORMER "Harry Christophers, The Sixteen Choir & Orc" INDEX 01 31:27:30 TRACK 15 AUDIO TITLE "8. tenor & chorus: My mouth shall speak the praise of the Lord..." PERFORMER "Harry Christophers, The Sixteen Choir & Orc" INDEX 01 35:24:70 TRACK 16 AUDIO TITLE "Anthem No.6 - 'As pants ... streams' (Psalm 42), HWV251 - 1. Sonata" PERFORMER "Harry Christophers, The Sixteen Choir & Orc" INDEX 00 38:07:27 INDEX 01 38:16:20 TRACK 17 AUDIO TITLE "2. chorus: As pants the hart for cooling streams..." PERFORMER "Harry Christophers, The Sixteen Choir & Orc" INDEX 01 41:42:45 TRACK 18 AUDIO TITLE "3. soprano: Tears are my daily food..." PERFORMER "Harry Christophers, The Sixteen Choir & Orc" INDEX 01 44:49:67 TRACK 19 AUDIO TITLE "4. tenor: Now, when I think thereupon I pour out my heart..." PERFORMER "Harry Christophers, The Sixteen Choir & Orc" INDEX 00 47:58:19 INDEX 01 47:58:20 TRACK 20 AUDIO TITLE "5. chorus: In the voice of praise and thanksgiving..." PERFORMER "Harry Christophers, The Sixteen Choir & Orc" INDEX 01 49:31:15 TRACK 21 AUDIO TITLE "6. soprano & tenor. Duet: Why so full of grief O my soul..." PERFORMER "Harry Christophers, The Sixteen Choir & Orc" INDEX 01 51:11:50 TRACK 22 AUDIO TITLE "7. tenor & chorus: Put thy trus in God for I will praise him..." PERFORMER "Harry Christophers, The Sixteen Choir & Orc" INDEX 01 55:34:32
Доп. информация: Recorded in: St Jude on the Hill, Hampstead, London 30 November-2 December 1987
Handel - Chandos Anthems, Vol.1 - http://rutracker.org/forum/viewtopic.php?t=4948169
Handel - Chandos Anthems, Vol.2 - http://rutracker.org/forum/viewtopic.php?t=4948180
Handel - Chandos Anthems, Vol.3 - http://rutracker.org/forum/viewtopic.php?t=4948186
Handel - Chandos Anthems, Vol.4 - http://rutracker.org/forum/viewtopic.php?t=4948197
[teatrix.ru].t7859.torrent 
Торрент: Зарегистрирован [ 2015-10-14 02:42 ] · DAD2036AEBDDE56E9E67AD0093DE5EC622D14FDB

Скачать .torrent

Скачать

13 KB

Статус: проверено
Скачан: 0 раз
Размер: 293 MB
terms.php



Быстрый ответ

Имя:

      
Для отправки сообщений необходимо включить JavaScript
Показать сообщения:    

Текущее время: 10-Дек 08:03

Часовой пояс: UTC + 3


Вы можете начинать темы
Вы можете отвечать на сообщения
Вы не можете редактировать свои сообщения
Вы не можете удалять свои сообщения
Вы не можете голосовать в опросах
Вы не можете прикреплять файлы к сообщениям
Вы можете скачивать файлы