(Classical) Johann Baptist Vanhal - Missa Pastoralis; Missa Solemnis - Haines, Stoddart, Ainsworth, Pitkanen, TOWER Voices New Zealand, Aradia Ensemble, Uwe Grodd - 2001, FLAC (image+.cue) lossless


Статистика раздачи [Обновить пиров]
Размер:  331 MB   |    Зарегистрирован:  1 год 1 месяц   |    Скачан:  0 раз

Полного источника не было: Никогда

 
   
 
 
 

[Цитировать]

Johann Baptist Vaňhal - Missa Pastoralis; Missa Solemnis - Haines, Stoddart, Ainsworth, Pitkanen, TOWER Voices New Zealand, Aradia Ensemble, Uwe Grodd
Жанр: Classical
Год издания диска: 2001
Издатель (лейбл): Naxos
Номер по каталогу: 8.555080
Дата записи: 2000
Аудиокодек: FLAC
Тип рипа: image+.cue
Битрейт аудио: lossless
Продолжительность: 68:28
Источник: собственный рип
Наличие сканов в содержимом раздачи: да
Треклист:
Johann Baptist Vaňhal (Wanhal) (1739-1813)
[1]-[6] Missa Pastoralis in G major (Weinmann XIX:G4)
[7]-[12] Missa Solemnis in C major (Weinmann XIX: C7)
Исполнители:
Mary Enid Haines
Nina Scott Stoddart
Colin Ainsworth
Steven Pitkanen
TOWER Voices New Zealand
Aradia Ensemble
Uwe Grodd

Лог создания рипа

Exact Audio Copy V1.0 beta 3 from 29. August 2011
EAC extraction logfile from 23. November 2014, 3:28
Soli, TOWER Voices New Zealand, Aradia Ensemble, Uwe Grodd / Vanhal - Missa Pastoralis; Missa Solemnis
Used drive : HL-DT-STDVDRAM GU70N Adapter: 0 ID: 0
Read mode : SecureUtilize accurate stream : YesDefeat audio cache : YesMake use of C2 pointers : No
Read offset correction : 48Overread into Lead-In and Lead-Out : NoFill up missing offset samples with silence : YesDelete leading and trailing silent blocks : NoNull samples used in CRC calculations : YesUsed interface : Native Win32 interface for Win NT & 2000
Used output format : User Defined EncoderSelected bitrate : 128 kBit/sQuality : HighAdd ID3 tag : NoCommand line compressor : C:\Program Files (x86)\Exact Audio Copy\Flac\flac.exeAdditional command line options : -V -8 -T "Date=%year%" -T "Genre=%genre%" %source%
TOC of the extracted CD
Track | Start | Length | Start sector | End sector --------------------------------------------------------- 1 | 0:00.00 | 3:53.50 | 0 | 17524 2 | 3:53.50 | 8:55.37 | 17525 | 57686 3 | 12:49.12 | 7:45.63 | 57687 | 92624 4 | 20:35.00 | 2:34.60 | 92625 | 104234 5 | 23:09.60 | 4:48.17 | 104235 | 125851 6 | 27:58.02 | 5:59.70 | 125852 | 152846 7 | 33:57.72 | 4:47.25 | 152847 | 174396 8 | 38:45.22 | 12:05.70 | 174397 | 228841 9 | 50:51.17 | 6:55.48 | 228842 | 260014 10 | 57:46.65 | 1:33.52 | 260015 | 267041 11 | 59:20.42 | 3:54.28 | 267042 | 284619 12 | 63:14.70 | 5:11.30 | 284620 | 307974
Range status and errors
Selected range
Filename C:\temp\Naxos_8.555080 - Vanhal - Missa Pastoralis; Missa Solemnis\Vanhal - Missa Pastoralis; Missa Solemnis.wav
Peak level 99.9 % Extraction speed 2.1 X Range quality 100.0 % Test CRC 6FC18875 Copy CRC 6FC18875 Copy OK
No errors occurred
AccurateRip summary
Track 1 accurately ripped (confidence 8) [34EDD277] (AR v2)Track 2 accurately ripped (confidence 8) [F77D94B4] (AR v2)Track 3 accurately ripped (confidence 8) [33EE77D8] (AR v2)Track 4 accurately ripped (confidence 8) [552AE2AF] (AR v2)Track 5 accurately ripped (confidence 8) [F8DDF15B] (AR v2)Track 6 accurately ripped (confidence 8) [F6CA411D] (AR v2)Track 7 accurately ripped (confidence 8) [E5F155BA] (AR v2)Track 8 accurately ripped (confidence 8) [5E93C622] (AR v2)Track 9 accurately ripped (confidence 8) [7AABA67D] (AR v2)Track 10 accurately ripped (confidence 8) [E05E1339] (AR v2)Track 11 accurately ripped (confidence 8) [9DF73BE1] (AR v2)Track 12 accurately ripped (confidence 8) [866BA3D6] (AR v2)
All tracks accurately ripped
End of status report
==== Log checksum 4935FDAECC41C9169BA717A4B92A5D1DAFECCDEBB20E0F53B9C7B82CA76714C6 ====
[teatrix.ru].t7860.torrent 
Торрент: Зарегистрирован [ 2015-10-14 02:42 ] · 7A61DD7D0E3921A62CA8CCAEE51468E156A25529

Скачать .torrent

Скачать

27 KB

Статус: проверено
Скачан: 0 раз
Размер: 331 MB
terms.php



Быстрый ответ

Имя:

      
Для отправки сообщений необходимо включить JavaScript
Показать сообщения:    

Текущее время: 07-Дек 13:39

Часовой пояс: UTC + 3


Вы можете начинать темы
Вы можете отвечать на сообщения
Вы не можете редактировать свои сообщения
Вы не можете удалять свои сообщения
Вы не можете голосовать в опросах
Вы не можете прикреплять файлы к сообщениям
Вы можете скачивать файлы