(Classical) Handel - A Song for Saint Cecilia\'s Day - Lucy Crowe, Richard Croft; Les Musiciens du Louvre-Grenoble, Marc Minkowski - 2011, FLAC (image+.cue) lossless


Статистика раздачи [Обновить пиров]
Размер:  236 MB   |    Зарегистрирован:  1 год 1 месяц   |    Скачан:  2 раза

Полного источника не было: 2 месяца 3 дня

 
   
 
 
 

[Цитировать]

Handel - A Song for Saint Cecilia's Day - Lucy Crowe, Richard Croft; Les Musiciens du Louvre-Grenoble, Marc Minkowski
Жанр: Classical
Страна-производитель диска: France
Год издания диска: 2011
Издатель (лейбл): Naive
Номер по каталогу: V5279
Дата записи: 2009
Аудиокодек: FLAC
Тип рипа: image+.cue
Битрейт аудио: lossless
Продолжительность: 53:02
Источник: собственный рип
Наличие сканов в содержимом раздачи: да
Треклист:
George Frideric Handel (1685-1759)
[1]-[13] A Song for Saint Cecilia's Day
Исполнители:
Lucy Crowe soprano
Richard Croft tenor
Les Musiciens du Louvre-Grenoble
Marc Minkowski

Лог создания рипа

Exact Audio Copy V1.0 beta 3 from 29. August 2011
EAC extraction logfile from 20. November 2014, 2:52
Lucy Crowe, Richard Croft, Les Musiciens du Louvre, Marc Minkowski / Handel - A Song for Saint Cecilia's Day
Used drive : HL-DT-STDVDRAM GU70N Adapter: 0 ID: 0
Read mode : SecureUtilize accurate stream : YesDefeat audio cache : YesMake use of C2 pointers : No
Read offset correction : 48Overread into Lead-In and Lead-Out : NoFill up missing offset samples with silence : YesDelete leading and trailing silent blocks : NoNull samples used in CRC calculations : YesUsed interface : Native Win32 interface for Win NT & 2000
Used output format : User Defined EncoderSelected bitrate : 128 kBit/sQuality : HighAdd ID3 tag : NoCommand line compressor : C:\Program Files (x86)\Exact Audio Copy\Flac\flac.exeAdditional command line options : -V -8 -T "Date=%year%" -T "Genre=%genre%" %source%
TOC of the extracted CD
Track | Start | Length | Start sector | End sector --------------------------------------------------------- 1 | 0:00.00 | 5:13.56 | 0 | 23530 2 | 5:13.56 | 0:30.22 | 23531 | 25802 3 | 5:44.03 | 2:55.05 | 25803 | 38932 4 | 8:39.08 | 3:17.58 | 38933 | 53765 5 | 11:56.66 | 10:12.28 | 53766 | 99693 6 | 22:09.19 | 3:11.43 | 99694 | 114061 7 | 25:20.62 | 1:39.19 | 114062 | 121505 8 | 27:00.06 | 6:28.63 | 121506 | 150668 9 | 33:28.69 | 3:34.28 | 150669 | 166746 10 | 37:03.22 | 5:44.37 | 166747 | 192583 11 | 42:47.59 | 1:28.30 | 192584 | 199213 12 | 44:16.14 | 0:54.73 | 199214 | 203336 13 | 45:11.12 | 7:50.31 | 203337 | 238617
Range status and errors
Selected range
Filename C:\temp\V5279 Handel - A Song for Saint Cecilia's Day - Minkowski\Handel - A Song for Saint Cecilia's Day.wav
Peak level 100.0 % Extraction speed 4.9 X Range quality 99.9 % Test CRC 318E9443 Copy CRC 318E9443 Copy OK
No errors occurred
AccurateRip summary
Track 1 accurately ripped (confidence 9) [6E0BA370] (AR v2)Track 2 accurately ripped (confidence 9) [CE1402BD] (AR v2)Track 3 accurately ripped (confidence 9) [E28389FA] (AR v2)Track 4 accurately ripped (confidence 9) [F81C9AB9] (AR v2)Track 5 accurately ripped (confidence 9) [A90C087A] (AR v2)Track 6 accurately ripped (confidence 9) [923F2B88] (AR v2)Track 7 accurately ripped (confidence 9) [185B221B] (AR v2)Track 8 accurately ripped (confidence 9) [8ADDE80C] (AR v2)Track 9 accurately ripped (confidence 9) [89873384] (AR v2)Track 10 accurately ripped (confidence 9) [FF59CC21] (AR v2)Track 11 accurately ripped (confidence 9) [78C8CA30] (AR v2)Track 12 accurately ripped (confidence 9) [09DA3E55] (AR v2)Track 13 accurately ripped (confidence 9) [3437B9F3] (AR v2)
All tracks accurately ripped
End of status report
==== Log checksum 4021CB1A9B4315CAED054BD200B90EC01C6A59853AD60663ED99DE4AE7CF0CC8 ====
[teatrix.ru].t7861.torrent 
Торрент: Зарегистрирован [ 2015-10-14 02:42 ] · A5B765F062C56F7B2ED6D07590BE43C777E5A5E9

Скачать .torrent

Скачать

39 KB

Статус: проверено
Скачан: 2 раз
Размер: 236 MB
terms.php



Быстрый ответ

Имя:

      
Для отправки сообщений необходимо включить JavaScript
Показать сообщения:    

Текущее время: 03-Дек 07:38

Часовой пояс: UTC + 3


Вы можете начинать темы
Вы можете отвечать на сообщения
Вы не можете редактировать свои сообщения
Вы не можете удалять свои сообщения
Вы не можете голосовать в опросах
Вы не можете прикреплять файлы к сообщениям
Вы можете скачивать файлы