(Classical) Handel - Chandos Anthems, Vol.4 (Lynne Dawson, Ian Partridge, The Sixteen, Harry Christophers) - 1989, APE (image+.cue) lossless

DL-List and Torrent activity [Update пиров]
Size:  216 MB   |    Registered:  1 year   |    Completed:  1 time

Seeder not seen: 3 months 26 days



Handel - Chandos Anthems, Vol.4 (Harry Christophers)
Жанр: Classical
Страна-производитель диска: England
Год издания диска: 1989
Издатель (лейбл): Chandos
Номер по каталогу: CHAN 0509
Дата записи: 1989
Аудиокодек: APE
Тип рипа: image+.cue
Битрейт аудио: lossless
Продолжительность: 49:25
Источник: скачано с
сайт-источник/ник/другое: интернет
Наличие сканов в содержимом раздачи: да

скрытый текст

Chandos Anthems, Vol. 4
George Frideric Handel
Chandos Anthem No.10. 'The Lord is my light' 27:57
1 Sinfonia 02:39
2 The Lord is my light and my salvation; whom then shall I fear? The Lord is 2:38
the strength of my life; of whom then shall I be afraid?
3 Though an host of men were laid against me, yet shall my heart not be 3:01
afraid; though there rose up war against me, yet will I put my trust in him.
4 One thing have I desired of the Lord, which I will require: that I may dwell in 4:16
the house of the Lord all the days of my life, to behond the fair beauty of the
Lord, and to visit his temple.
5 I will will offer in his dwelling an oblation with great gladness, I will sing and 3:00
speak praises unto the Lord.
6 For who is God but the Lord? Or who has any strength but the Lord? The 4:16
earth trembled, and quak'd, the very foundation also of the hills shook, and
were removed; he cast forth lightnings, and gave his tunder, and destroy'd
7 The Lord is my strength and my shield, my heart has trusted in him and I 2:14
am helped. Therefore my heart danceth for joy, and in my song will I praise
8 It is the Lord that ruleth the sea, the Lord sitteth above the water flood, and 1:42
the Lord remaineth a king for ever.
9 Sing praises unto the Lord, O ye saints of his, and give thanks unto him for 3:59
a remembrance of his holiness.
I will remember thy name from one generation to another; therefore shall the
people give thanks unto thee world without end. Amen.
Chandos Anthem No.11. 'Let God arise' 21:19
10 Sonata 03:52
11 Let God aris, and let his enemies be scattr'd; let them also that hate him, 2:54
flee before him.
12 Like as the smoke vanisheth, so shalt thou drive them away; like as max 2:37
melteth at the fire, so let the ungodly perish at the presence of God.
13 Let the righteous be glad, and rejoice before God; let them also be merry 3:09
and joyful.
14 O sing unto God, and sing praises unto his name. 3:18
15 Praised be the Lord! 5:23
At thy rebuke, O God, both the chariot and horse are fall'n.
Blessed be God, Alleluja.
Lynne Dawson soprano
Ian Partridge tenor
The Sixteen
The Sixteen Orchestra
Harry Christophers

Лог создания рипа

нет лога

Содержание индексной карты (.CUE)

PERFORMER "GF Handel"TITLE "Chandos Anthems Volume 4 - Nos 10 and 11"FILE "CD4.ape" WAVE TRACK 01 AUDIO TITLE "Sinfonia" INDEX 01 00:00:00 TRACK 02 AUDIO TITLE "The Lord is my Light and my salvation" INDEX 01 02:43:35 TRACK 03 AUDIO TITLE "Through a host of men were laid against me" INDEX 01 05:22:63 TRACK 04 AUDIO TITLE "One thing have I desired of the Lord" INDEX 01 08:25:23 TRACK 05 AUDIO TITLE "I will offer in his dwelling an oblation" INDEX 01 12:42:53 TRACK 06 AUDIO TITLE "For who is God but the Lord?" INDEX 01 15:43:18 TRACK 07 AUDIO TITLE "The Lord is my strength and my shield" INDEX 01 19:59:50 TRACK 08 AUDIO TITLE "It is the Lord that ruleth the sea" INDEX 01 22:13:40 TRACK 09 AUDIO TITLE "Sing praises unto the Lord" INDEX 01 23:56:13 TRACK 10 AUDIO TITLE "Sonata" INDEX 01 28:04:28 TRACK 11 AUDIO TITLE "Let God arise" INDEX 01 31:56:40 TRACK 12 AUDIO TITLE "Like as the smoke vanisheth" INDEX 01 34:52:50 TRACK 13 AUDIO TITLE "Let the righteous be glad" INDEX 01 37:30:50 TRACK 14 AUDIO TITLE "O sing unto God" INDEX 01 40:41:73 TRACK 15 AUDIO TITLE "Praised be the Lord!" INDEX 01 44:01:08

Лог проверки качества

PERFORMER: auCDtect Task Manager, ver. Beta build (c) 2008, 2009 y-soft. All rights reservedhttp://y-soft.110mb.com
ANALYZER: auCDtect: CD records authenticity detector, version 0.8.2Copyright (c) 2004 Oleg Berngardt. All rights reserved.Copyright (c) 2004 Alexander Djourik. All rights reserved.
FILE: CD4.ape Size: 222286339 Hash: 97D44A768C10F8264768333DE62AD90B Accuracy: -m0 Conclusion: CDDA 100% Signature: 9932628421B9955D01E7CEB13B0C514DCC567D8C
Доп. информация: Recorded in: St Jude on the Hill, Hampstead, London 24-26 May 1989
Handel - Chandos Anthems, Vol.1 - http://rutracker.org/forum/viewtopic.php?t=4948169
Handel - Chandos Anthems, Vol.2 - http://rutracker.org/forum/viewtopic.php?t=4948180
Handel - Chandos Anthems, Vol.3 - http://rutracker.org/forum/viewtopic.php?t=4948186
Handel - Chandos Anthems, Vol.4 - http://rutracker.org/forum/viewtopic.php?t=4948197
Torrent: Registered [ 2015-10-14 02:42 ] · E314111B016DDD07E949141E88A19B6B63A630F0

Download .torrent


18 KB

Status: checked
Completed: 1 times
Size: 216 MB

Quick Reply


Heads necessary to send messages to enable JavaScript
Display posts:    

Current time is: 26-Oct 10:33

All times are UTC + 3

You can post new topics in this forum
You can reply to topics in this forum
You cannot edit your posts in this forum
You cannot delete your posts in this forum
You cannot vote in polls in this forum
You cannot attach files in this forum
You can download files in this forum