(Classical) Handel - Chandos Anthems, Vol.3 (Patrizia Kwella, James Bowman, Ian Partridge, Michael George, The Sixteen, Harry Christophers) - 1989, APE (image+.cue) lossless

DL-List and Torrent activity [Update пиров]
Size:  313 MB   |    Registered:  1 year   |    Completed:  0 times

Seeder not seen: Never



Handel - Chandos Anthems, Vol.3 (Harry Christophers)
Жанр: Classical
Страна-производитель диска: England
Год издания диска: 1989
Издатель (лейбл): Chandos
Номер по каталогу: CHAN 0505
Дата записи: 1989
Аудиокодек: APE
Тип рипа: image+.cue
Битрейт аудио: lossless
Продолжительность: 75:00
Источник: скачано с
сайт-источник/ник/другое: интернет
Наличие сканов в содержимом раздачи: да

скрытый текст

Chandos Anthems Vol. 3
George Frideric Handel (1685-1759)
Chandos Anthem No.7. 'My song shall be alway' 20:31
1 Sonata 3:12
Soprano & Chorus
2 My song shall be always of the loving kindness of the Lord;… 5:07
…with my mouth will I ever be shewing thy truth from one generation to another. The Heav'ns shall praise thy wond'rous works, and thy truth in the congregation of the saints.
3 For who is he among the clouds that shall be… 0:33
…compared unto the Lord? And what is he among the Gods that shall be like unto the Lord?
Soprano, Tenor & Bass
4 God is very greatly to be feared in the counsel of the saints,… 2:22
…and to be had in reverence of all that are round about him. O Lord, God of hosts, who is like unto thee? Thy truth, most mighty Lord, is on ev'ry side.
Alto & Bass Duet
5 The heav'ns are thine, the earth is also thine;… 2:10
…thou has laid the foundation of the round world.
6 Righteousness and equity are the habitation of thy seat;… 3:13
…mercy and truth shall go before thy face.
7 Blessed is the people, O Lord, that can rejoice in thee;… 2:42
…they shall walk in the light of thy countenance.
8 Thou art the glory of their strength. Alleluja. 1:12
Chandos Anthem No.8. 'O come, let us sing unto the Lord' 29:57
9 Sonata 3:58
10 O come, let us sing unto the Lord,… 3:28
…let us heartily rejoice in the strength of our salvation. Let us come before his presence with thanksgiving, and show ourselves glad in him with psalms. For the Lord is a great God, and a great King above all Gods.
11 O come, let us worship and fall down,… 3:43
…and kneel before the Lord our Maker; for he is the Lord our God, and we are the people of his pasture, and the sheep of his hand.
12 Glory and worship are before him,… 1:48
…power and honour are in his sanctuary.
Tenor & Chorus
13 Tell it out among the heathen, that the Lord is King,… 5:51
…and that he made the world so fast it cannot be moved.
14 O magnify the Lord, and worship him upon his holy hill,… 3:36
…for the Lord our God is holy.
15 The Lord preserveth the souls of the saints,… 2:59
…he shall deliver them from the hand of the ungodly.
16 For look as high as the heaven is in comparison of the earth,… 2:00
…so great is his mercy towards them that fear him.
17 There is sprung up a light for the righteous,… 2:34
…and joyful gladness for such as are true-hearted. Rejoice in the Lord, ye righteous!
Chandos Anthem No.9. 'O Praise the Lord with one consent' 24:13
18 O praise the Lord with one consent, 5:12
and magnify his name!
Let all the servants of the Lord,
his worthy praise proclaim!
19 Praise him, all ye that in his house 3:09
attend with constant care,
with those that to his utmost courts
with humble zeal repair.
20 For this our truest int'rest is 2:30
glad hymns of praise to sing,
and with loud songs to bless his name,
a most delightful thing.
21 That God is great we often have 2:31
by glad experience found;
and seen how he with wondrous power
above all Gods is crowned.
22 With cheerful notes let all the earth 3:24
to heaven their voices raise!
Let all, inspired with godly mirth,
sing solemn hymns with praise.
23 God's tender mercy knows no bounds, 2:54
his truth shall ne'er decay.
Then let the willing nations round
their greatful tribute pay.
24 Ye boundless realms of joy 2:25
exalt your Maker's fame;
his praise your song employ
above the starry frame.
25 Your voices raise, 2:08
ye Cherubim and Seraphim,
to sing his praise!
Patrizia Kwella soprano
James Bowman counter-tenor
Ian Partridge tenor
Michael George bass
The Sixteen
The Sixteen Orchestra
Harry Christophers

Лог создания рипа

нет лога

Содержание индексной карты (.CUE)

PERFORMER "Handel"TITLE "Chandos Anthems Vol. 3"FILE "CD3.ape" WAVE TRACK 01 AUDIO TITLE "Sonata" PERFORMER "Anthem 7" INDEX 01 00:00:00 TRACK 02 AUDIO TITLE "My song shall be alway" PERFORMER "Anthem 7" INDEX 01 03:12:42 TRACK 03 AUDIO TITLE "For who is he among the clouds" PERFORMER "Anthem 7" INDEX 01 08:17:12 TRACK 04 AUDIO TITLE "God is very greatly to be feared" PERFORMER "Anthem 7" INDEX 01 08:51:12 TRACK 05 AUDIO TITLE "The Heav'ns are thine" PERFORMER "Anthem 7" INDEX 01 11:12:15 TRACK 06 AUDIO TITLE "Righteousness and equity" PERFORMER "Anthem 7" INDEX 01 13:22:30 TRACK 07 AUDIO TITLE "Blessed is the people" PERFORMER "Anthem 7" INDEX 01 16:35:32 TRACK 08 AUDIO TITLE "Thou art the glory" PERFORMER "Anthem 7" INDEX 01 19:16:30 TRACK 09 AUDIO TITLE "Sonata" PERFORMER "Anthem 8" INDEX 01 20:38:02 TRACK 10 AUDIO TITLE "O come let us sing unto the Lord" PERFORMER "Anthem 8" INDEX 01 24:36:35 TRACK 11 AUDIO TITLE "O come let us worship" PERFORMER "Anthem 8" INDEX 01 28:03:70 TRACK 12 AUDIO TITLE "Glory and worship" PERFORMER "Anthem 8" INDEX 01 31:47:17 TRACK 13 AUDIO TITLE "Tell it out" PERFORMER "Anthem 8" INDEX 01 33:35:17 TRACK 14 AUDIO TITLE "O magnify the Lord" PERFORMER "Anthem 8" INDEX 01 39:26:05 TRACK 15 AUDIO TITLE "The Lord preserveth" PERFORMER "Anthem 8" INDEX 01 43:02:07 TRACK 16 AUDIO TITLE "As High as the heaven is" PERFORMER "Anthem 8" INDEX 01 46:01:25 TRACK 17 AUDIO TITLE "a light sprung up" PERFORMER "Anthem 8" INDEX 01 48:01:50 TRACK 18 AUDIO TITLE "O praise the Lord with one consent" PERFORMER "Anthem 9" INDEX 01 50:46:02 TRACK 19 AUDIO TITLE "Praise Him" PERFORMER "Anthem 9" INDEX 01 55:58:17 TRACK 20 AUDIO TITLE "Our Truest interest is" PERFORMER "Anthem 9" INDEX 01 59:06:20 TRACK 21 AUDIO TITLE "God is great" PERFORMER "Anthem 9" INDEX 01 61:32:65 TRACK 22 AUDIO TITLE "With cheerful notes" PERFORMER "Anthem 9" INDEX 01 64:06:57 TRACK 23 AUDIO TITLE "God's tender mercy" PERFORMER "Anthem 9" INDEX 01 67:30:62 TRACK 24 AUDIO TITLE "realms of joy" PERFORMER "Anthem 9" INDEX 01 70:24:65 TRACK 25 AUDIO TITLE "Your voices raise" PERFORMER "Anthem 9" INDEX 01 72:49:47

Лог проверки качества

PERFORMER: auCDtect Task Manager, ver. Beta build (c) 2008, 2009 y-soft. All rights reservedhttp://y-soft.110mb.com
ANALYZER: auCDtect: CD records authenticity detector, version 0.8.2Copyright (c) 2004 Oleg Berngardt. All rights reserved.Copyright (c) 2004 Alexander Djourik. All rights reserved.
FILE: CD3.ape Size: 323292826 Hash: 00E0E194F345B8CCD735A775F4CE2F11 Accuracy: -m0 Conclusion: CDDA 58% Signature: F2963D2C7E06D535034906C535067EE064D590C5
Доп. информация: Recorded in: St Jude on the Hill, Hampstead, London 30 January-1 February 1989
Handel - Chandos Anthems, Vol.1 - http://rutracker.org/forum/viewtopic.php?t=4948169
Handel - Chandos Anthems, Vol.2 - http://rutracker.org/forum/viewtopic.php?t=4948180
Handel - Chandos Anthems, Vol.3 - http://rutracker.org/forum/viewtopic.php?t=4948186
Handel - Chandos Anthems, Vol.4 - http://rutracker.org/forum/viewtopic.php?t=4948197
Torrent: Registered [ 2015-10-14 02:42 ] · F364B2D8D9C182FAD75521BB9B82574E3BE8F269

Download .torrent


13 KB

Status: checked
Completed: 0 times
Size: 313 MB

Quick Reply


Heads necessary to send messages to enable JavaScript
Display posts:    

Current time is: 24-Oct 11:49

All times are UTC + 3

You can post new topics in this forum
You can reply to topics in this forum
You cannot edit your posts in this forum
You cannot delete your posts in this forum
You cannot vote in polls in this forum
You cannot attach files in this forum
You can download files in this forum