(Classical) Bach Edition (Brilliant Classics) - Chorales (Nicol Matt) - 1999, FLAC (image+.cue) lossless


Статистика раздачи [Обновить пиров]
Размер:  984 MB   |    Зарегистрирован:  1 год 1 месяц   |    Скачан:  0 раз

Полного источника не было: Никогда

 
   
 
 
 

[Цитировать]

Bach Edition (Brilliant Classics) - Chorales
Жанр: Classical
Страна-производитель диска: Germany
Год издания диска: 1999
Издатель (лейбл): Brilliant Classics
Номер по каталогу: 99575/1-4
Дата записи: 1999
Аудиокодек: FLAC
Тип рипа: image+.cue
Битрейт аудио: lossless
Продолжительность: 48:19, 59:56, 57:52, 59:57
Источник: собственный рип
сайт-источник/ник/другое: Из личной коллекции
Наличие сканов в содержимом раздачи: да
Треклист:

скрытый текстCD1

CD1
01. Als der gutige Gott, BWV 264 [00:01:04]
02. Das neugeborne Kindelein, BWV 122 [00:01:09]
03. Der Tag, der ist so freudenreich, BWV 294 [00:01:08]
04. Ermuntre dich, mein schwacher Geist (Weihnachtsoratorium), BWV 248 [00:01:52]
05. Freuet euch, ihr Christen alle (cantata), BWV 40 [00:02:03]
06. Fur Freuden lasst uns springen, BWV 313 [00:00:48]
07. Gelobet seist du, Jesu Christ, BWV 314 [00:00:41]
08. Gelobet seist du, Jesu Christ (cantata), BWV 64 [00:00:40]
09. Gelobet seist du, Jesu Christ (Weihnachtsoratorium), BWV 248 [00:00:43]
10. Gott des Himmels und der Erden (Weihnachsoratorium), BWV 248 [00:00:47]
11. Gottes sohn ist kommen, BWV 318 [00:00:47]
12. Herzlich thut mich verlangen (Weihnachtsoratorium), BWV 248 [00:01:04]
13. Ich freue mich in dir (cantata), BWV 133 [00:01:47]
14. In dich hab' ich gehoffet, Herr (Wiehnachtsoratorium), BWV 248 [00:01:32]
15. In dulci jubilo, BWV 368 [00:00:52]
16. Lobt Gott, ihr Christen allzugleich, BWV 375 [00:00:39]
17. Lobt gott, ihr Christen allzugleich (cantata), BWV 151 [00:00:37]
18. Nun freut euch, lieben Christen g'mein, BWV 388 [00:00:52]
19. Nun freut euch, lieben Christen g'mein, BWV 307 [00:00:49]
20. Nun freut euch, lieben Christen g'mein, BWV 248 [00:00:57]
21. Nun komm, der Heiden Heiland (cantata), BWV 36 [00:01:01]
22. Nun komm, der Heiden Heiland (cantata), BWV 62 [00:00:34]
23. Puer natus in Bethlehem (cantata), BWV 65 [00:00:58]
24. Uns ist ein Kindlein heut' gebor'n, BWV 414 [00:00:51]
25. Von Himmel hoch, da komm ich her (Weichnachtsoratorium), BWV 248 [00:01:02]
26. Wachet auf, ruft uns die Stimme (cantata), BWV 140 [00:02:57]
27. Warum sollt' ich mich denn gramen (Weihnachtsoratorium), BWV 248 [00:01:29]
28. Wir Christenleut' (cantata), BWV 40 [00:01:21]
29. Wir Christenleut' (cantata), BWV 110 [00:00:43]
30. Wir Chritenleut' (Weihnachtsoratorium), BWV 248 [00:00:42]
31. Kyrie, Gott Vater in Ewigkeit, BWV 371 [00:03:04]
32. Allein Gott inder Hoh' sei Ehr', BWV 260 [00:00:50]
33. Wir glauben all' an einen Gott, BWV 437 [00:02:13]
34. Heilig, heilig, BWV 325 [00:01:08]
35. Sanctus, sanctus Dominus Deus Sabaoth, BWV 325 [00:01:11]
36. Dies sind die heil'gen zehn Gebot', BWV 298 [00:00:41]
37. Meine Seele erhebt den Herren (cantata), BWV 10 [00:00:48]
38. Vater unser im Himmelreich, BWV 416 [00:00:49]
39. Vater unser im Himmelreich (Johannes Passion), BWV 245 [00:00:54]
40. Verleih' uns Frieden genadiglich (cantata), BWV 126 [00:01:54]
41. Verleih' uns Frieden genadiglich (cantata), BWV 42 [00:01:56]

CD2

CD2
01. Ach Gott, vom Himmel sich' darein (cantata), BWV 2 [00:01:46]
02. Ach Gott, wie manches Herzeleid (cantata), BWV 153 [00:01:22]
03. Als Jesus Christus in der Nacht, BWV 265 [00:01:29]
04. An Wasserflussen Babylon, BWV 267 [00:01:21]
05. Christ ist serstanden, BWV 276 [00:01:49]
06. Christ ist erstanden (cantata), BWV 66 [00:00:41]
07. Christ lag in Todesbanden, BWV 277 [00:01:09]
08. Christ lag in Todesbanden, BWV 278 [00:01:05]
09. Christ lag in Todesbanden, BWV 279 [00:00:59]
10. Christ lag in Todesbanden (cantata), BWV 4 [00:01:07]
11. Christus, der uns selig macht, BWV 283 [00:01:08]
12. Christus, der uns selig macht (Johannes Passion), BWV 245-I [00:01:07]
13. Christus, der uns selig macht (Johannes Passion), BWV 245-II [00:01:04]
14. Christus ist erstanden, hat uberwuden, BWV 284 [00:00:59]
15. Da der Herr Christ zu Tische sass, BWV 285 [00:00:51]
16. Des heil'gen Geistes reiche Gnad', BWV 205 [00:00:45]
17. Du grosser Schmerzensmann, BWV 300 [00:01:00]
18. Ermuntre dich, mein schwacher Geist (cantata), BWV 43 [00:01:36]
19. Erschienen ist der herrlich' Tag (cantata), BWV 67 [00:00:36]
20. Erschienen ist der herrlich' Tag (cantata), BWV 145 [00:00:34]
21. Erstanden ist der heilig' Christ, BWV 306 [00:00:36]
22. Es ist das Heil uns kommen her (cantata), BWV 9 [00:00:53]
23. Es ist das Heil uns kommen her (cantata), BWV 155 [00:00:53]
24. Gott sei gelobet und gebenedeiet, BWV 322 [00:01:39]
25. Herzlich lieb hab' ich dich, O Herr (Johannes Passion), BWV 245 [00:01:38]
26. Herzlich thut mich verlangen (Matthaeus Passion), BWV 244-I [00:01:05]
27. Herzlich thut mich verlangen (Matthaeus Passion), BWV 244-II [00:01:58]
28. Herzliebster Jesu, was hast du verbrochen (Matthaeus Passion), BWV 244-I [00:00:39]
29. Herzliebster Jesu, was hast du verbrochen (Matthaeus Passion), BWV 244-II [00:00:52]
30. Herzliebster Jesu, was hast du verbrochen (Johannes Passion), BWV 245-I [00:00:47]
31. Herzliebster Jesu, was hast du verbrochen (Johannes Passion), BWV 245-II [00:01:19]
32. Heut' ist, o Mensch, ein grosser Trauertag, BWV 341 [00:00:37]
33. Heut' triumphieret Gottes Sohn, BWV 342 [00:00:44]
34. Jesu Leiden, Pein und Tod (Johannes Passion), BWV 245-I [00:01:05]
35. Jesu Leiden, Pein und Tod (Johannes Passion), BWV 245-II [00:01:06]
36. Jesu Leiden, Pein und Tod (cantata), BWV 159 [00:01:01]
37. Jesus Christus, unser Heiland, BWV 363 [00:00:51]
38. Jesus Christus, unser Heiland, BWV 365 [00:00:45]
39. Jesus, meine Zuversicht (cantata), BWV 145 [00:00:46]
40. In dich hab' ich gehoffet, Herr (Matthaeus Passion), BWV 244 [00:00:51]
41. Mach's mit mir, Gott, nach deiner Gut' (Johannes Passion), BWV 245 [00:00:50]
42. Meinen Jesum lass' ich nicht (Matthaeus Passion), BWV 244 [00:00:51]
43. O Herzensangst, o Bangigkeit und Zagen, BWV 400 [00:00:42]
44. O Lamm Gottes, unschuldig, BWV 401 [00:01:03]
45. O Mensch, bewein' dein Sunde gross, BWV 402 [00:01:48]
46. O Mensch, schau Jesum Christum an, BWV 403 [00:00:50]
47. O Traurigkeit, o Herzeleid, BWV 404 [00:00:41]
48. O Welt, ich muss dich lassen, BWV 394 [00:00:46]
49. O Welt, ich muss dich lassen (Matthaeus Passion), BWV 244-I [00:00:52]
50. O Welt, ich muss dich lassen (Johannes Passion), BWV 245 [00:01:32]
51. O Welt, ich muss dich lassen (Matthaeus Passion), BWV 244-II [00:00:54]
52. O wir armen Sunder, BWV 407 [00:01:38]
53. Schaut, ihr Sunder, BWV 408 [00:00:43]
54. Sei gegrusset, Jesu gutig, BWV 410 [00:00:56]
55. So geibst du nun, mein Jesu, gute Nacht, BWV 412 [00:00:56]
56. Valet will ich dir geben (Johannes Passion), BWV 245 [00:00:56]
57. Werde munter, mein Germuthe (Matthaeus Passion), BWV 244 [00:00:55]

CD3

CD3
01. Ach blieb bei uns, Herr Jesu Christ, BWV 253 [00:00:45]
02. Ach Gott, erhor' mein Seufzen!, BWV 254 [00:00:46]
03. Ach Gott und Herr, BWV 255 [00:00:36]
04. Ach Gott, vom Himmel sich' darein (cantata), BWV 153 [00:00:52]
05. Ach Gott, wie manches Herzeleid (cantata), BWV 3 [00:01:06]
06. Ach, was soll ich Sunder machen, BWV 259 [00:00:48]
07. Allein zu dir, Herr Jesu Christ, BWV 261 [00:01:28]
08. Alle Menschen mussen sterben (cantata), BWV 162 [00:01:10]
09. Auf, auf, mein Herz, und du mein ganzer Sinn, BWV 268 [00:00:45]
10. Auf meinen lieben Gott (cantata), BWV 188 [00:00:50]
11. Auf meinen lieben Gott (cantata), BWV 89 [00:01:15]
12. Auf meinen lieben Gott (cantata), BWV 5 [00:00:50]
13. Auf meinen lieben Gott (cantata), BWV 148 [00:00:46]
14. Aus meines Herzens Grunde, BWV 269 [00:00:48]
15. Aus tiefer Noth schrei ich zu dir (cantata), BWV 38 [00:02:13]
16. Befiehl du deine Wege, BWV 272 [00:01:03]
17. Christ, der du bist der helle Tag, BWV 273 [00:00:40]
18. Christe, der du bist Tag und Licht, BWV 274 [00:01:06]
19. Christe, du Beistand deiner Kreuzgemeinde, BWV 275 [00:01:07]
20. Christ, under Herr, zum Jordan kam, BWV 280 [00:01:11]
21. Christ, under Herr, zum Jordan kam (cantata), BWV 176 [00:02:07]
22. Christus, der ist mein Leben, BWV 281 [00:00:35]
23. Christus, der ist mein Leben, BWV 282 [00:00:43]
24. Danket dem Herrn, denn er ist freundlich, BWV 286 [00:00:30]
25. Dank sei Gott in der Hohe, BWV 287 [00:00:56]
26. Das alte Jahr vergangen ist, BWV 288 [00:00:55]
27. Das walt' Gott Vater und Gott Sohn, BWV 290 [00:00:35]
28. Das walt' mein Gott, BWV 291 [00:01:26]
29. Den Vater dort oben, BWV 292 [00:00:58]
30. Der du bist drei in Einigkeit, BWV 293 [00:00:36]
31. Die Nacht ist kommen, BWV 296 [00:00:50]
32. Die Sonn' hat sich mit ihrem Glanz, BWV 297 [00:00:51]
33. Dir, dir, Jehova, will ich singen, BWV 299 [00:00:48]
34. Du Friedefurst, Herr Jesu Christ (cantata), BWV 67 [00:00:47]
35. Du Friedefurst, Herr Jesu Christ (cantata), BWV 116 [00:00:51]
36. Du, o schones Weltgebaude, BWV 301 [00:01:10]
37. Du, o schones Weltgebaude (cantata), BWV 56 [00:01:34]
38. Durch Adams Fall ist ganz verderbt (cantata), BWV 18 [00:01:56]
39. Ein' feste Burg ist unser Gott, BWV 302 [00:00:55]
40. Ein' feste Burg ist unser Gott, BWV 303 [00:00:56]
41. Ein' feste Burg ist unser Gott (cantata), BWV 80 [00:01:01]
42. Eins ist noth, ach Herr, dies Eine, BWV 304 [00:00:52]
43. Erbarm' dich mein, o Herre Gott, BWV 305 [00:01:19]
44. Erhalt' uns, Herr, bei deinem Wort (cantata), BWV 6 [00:01:01]
45. Es ist das Heil uns kommen her (cantata), BWV 117 [00:01:41]
46. Es ist genug; so nimm, Herr, meinen Geist (cantata), BWV 60 [00:02:14]
47. Es spricht der Unweisen Mund wohl, BWV 308 [00:00:55]
48. Es steh'n vor Gottes Throne, BWV 309 [00:01:09]
49. Es wir schier der letzte Tag herkommen, BWV 310 [00:00:41]
50. Es woll' uns Gott genadig sein, BWV 312 [00:01:40]
51. Freu dich sehr, o meine Seele (cantata), BWV 70 [00:01:42]
52. Freu dich sehr, o meine Seele (cantata), BWV 39 [00:01:59]
53. Gib dich zufrieden und sei stille, BWV 315 [00:01:09]

CD4

CD4
01. Gott, der du selber bist das Licht, BWV 316 [00:01:01]
02. Gott hat das Evangelium, BWV 319 [00:00:43]
03. Gott lebet noch, BWV 320 [00:00:59]
04. Gottlob, es geht nummehr zu, BWV 321 [00:00:49]
05. Helft mir Gott's Gute preisen (cantata), BWV 16 [00:00:58]
06. Helft mir Gott's Gute preisen (cantata), BWV 183 [00:01:46]
07. Herr Christ, der einig' Gott's Sohn (cantata), BWV 164 [00:01:34]
08. Herr Christ, der einig' Gott's Sohn (cantata), BWV 96 [00:00:53]
09. Herr Gott, dich loben alle wir, BWV 326-I [00:00:35]
10. Herr Gott, dich loben alle wir, BWV 326-II [00:00:30]
11. Herr Gott, dich loben alle wir, BWV 328 [00:06:44]
12. Herr Gott, dich loben alle wir (cantata), BWV 119 [00:00:50]
13. Herr Gott, dich loben alle wir (cantata), BWV 120 [00:01:00]
14. Herr, ich denk' an jene Zeit, BWV 329 [00:00:53]
15. Herr, ich habe missgehandelt, BWV 330 [00:00:55]
16. Herr Jesu Christ, dich zu uns wend', BWV 332 [00:00:34]
17. Herr Jesu Christ, du hast bereit't, BWV 333 [00:00:55]
18. Herr Jesu Christ, du hochstes Gut, BWV 334 [00:01:02]
19. Herr Jesu Christ, du hochstes Gut (cantata), BWV 168 [00:00:57]
20. Herr Jesu Christ, du hochstes Gut (cantata), BWV 48 [00:01:51]
21. Herr Jesu Christ, mein's Lebens Licht, BWV 335 [00:00:37]
22. Herr Jesu Christ, wahr'r Mensch und Gott (cantata), BWV 127 [00:00:48]
23. Herr, nun lass in Friede, BWV 337 [00:00:49]
24. Herr, straf' mich nicht in deinem Zorn, BWV 338 [00:01:04]
25. Herr, wie du willst, so schick's mit mir (cantata), BWV 156 [00:01:02]
26. Herr, wie du willst, so schick's mit mir, BWV 339 [00:01:04]
27. Herzlich lieb hab' ich dich, o Herr, BWV 340 [00:01:35]
28. Herzlich lieb hab' ich dich, o Herr (cantata), BWV 174 [00:01:33]
29. Herzlich thut mich verlangen (cantata), BWV 153 [00:01:16]
30. Hilf, Gott, dass mir's gelinge, BWV 343 [00:01:01]
31. Hilf, Herr Jesu, lass gelingen, BWV 344 [00:00:41]
32. Ich bin ja, Herr, in deiner Macht, BWV 345 [00:01:05]
33. Ich dank' dir, Gott, fur all' Wohlthat, BWV 346 [00:01:00]
34. Ich dank' dir, lieber Herre, BWV 347 [00:01:02]
35. Ich dank' dir, lieber Herre, BWV 348 [00:00:59]
36. Ich dank' dir, lieber Herre (cantata), BWV 37 [00:01:03]
37. Ich dank' dir schon durch deinen Sohn, BWV 349 [00:00:42]
38. Ich danke dir, o Gott, in deinem Throne, BWV 350 [00:01:07]
39. Ich hab' mein' Sach' Gott heimgestellt, BWV 351 [00:00:45]
40. Ich ruf' zu dir, Herr Jesu Christ (cantata), BWV 177 [00:02:18]
41. Jesu, der du meine Seele, BWV 352 [00:01:11]
42. Jesu, der du meine Seele, BWV 353 [00:01:10]
43. Jesu, der du meine Seele, BWV 354 [00:01:11]
44. Jesu, der du meine Seele (cantata), BWV 78 [00:01:02]
45. Jesu, der du selbst so wohl, BWV 355 [00:01:01]
46. Jesu, du mein liebstes Leben, BWV 356 [00:01:29]
47. Jesu, Jesu, du bist mein, BWV 357 [00:01:03]
48. Jesu, meine Freunde, BWV 358 [00:01:12]
49. Jesu, meine Freunde, BWV 227 [00:02:04]
50. Jesu, meine Freunde (cantata), BWV 81 [00:01:07]
Исполнители:
Nordic Chamber Choir, Soloists of the Freiburger Barockorchester, Nicol Matt

Лог создания рипа

CD1

CD1
Exact Audio Copy V1.0 beta 3 from 29. August 2011
EAC extraction logfile from 6. February 2015, 19:17
Chamber Choir of Europe; Solists Freiburger Barockorch. Nicol Matt / Bach Edition cd 137 - Vocal Works - Chorales
Used drive : HL-DT-STDVDRAM GSA-T40N Adapter: 0 ID: 0
Read mode : Secure
Utilize accurate stream : Yes
Defeat audio cache : Yes
Make use of C2 pointers : No
Read offset correction : 667
Overread into Lead-In and Lead-Out : No
Fill up missing offset samples with silence : Yes
Delete leading and trailing silent blocks : No
Null samples used in CRC calculations : Yes
Used interface : Native Win32 interface for Win NT & 2000
Used output format : User Defined Encoder
Selected bitrate : 32 kBit/s
Quality : High
Add ID3 tag : No
Command line compressor : C:\Program Files\Exact Audio Copy\Flac\flac.exe
Additional command line options : -V -8 -T "Date=%year%" -T "Genre=%genre%" %source%
TOC of the extracted CD
Track | Start | Length | Start sector | End sector
---------------------------------------------------------
1 | 0:00.00 | 1:04.56 | 0 | 4855
2 | 1:04.56 | 1:09.35 | 4856 | 10065
3 | 2:14.16 | 1:08.40 | 10066 | 15205
4 | 3:22.56 | 1:52.24 | 15206 | 23629
5 | 5:15.05 | 2:03.10 | 23630 | 32864
6 | 7:18.15 | 0:48.27 | 32865 | 36491
7 | 8:06.42 | 0:41.04 | 36492 | 39570
8 | 8:47.46 | 0:40.20 | 39571 | 42590
9 | 9:27.66 | 0:43.03 | 42591 | 45818
10 | 10:10.69 | 0:47.26 | 45819 | 49369
11 | 10:58.20 | 0:47.60 | 49370 | 52954
12 | 11:46.05 | 1:04.28 | 52955 | 57782
13 | 12:50.33 | 1:47.42 | 57783 | 65849
14 | 14:38.00 | 1:32.46 | 65850 | 72795
15 | 16:10.46 | 0:52.50 | 72796 | 76745
16 | 17:03.21 | 0:39.22 | 76746 | 79692
17 | 17:42.43 | 0:37.50 | 79693 | 82517
18 | 18:20.18 | 0:52.54 | 82518 | 86471
19 | 19:12.72 | 0:49.44 | 86472 | 90190
20 | 20:02.41 | 0:57.20 | 90191 | 94485
21 | 20:59.61 | 1:01.59 | 94486 | 99119
22 | 22:01.45 | 0:34.56 | 99120 | 101725
23 | 22:36.26 | 0:58.11 | 101726 | 106086
24 | 23:34.37 | 0:51.50 | 106087 | 109961
25 | 24:26.12 | 1:02.06 | 109962 | 114617
26 | 25:28.18 | 2:57.07 | 114618 | 127899
27 | 28:25.25 | 1:29.51 | 127900 | 134625
28 | 29:55.01 | 1:21.38 | 134626 | 140738
29 | 31:16.39 | 0:43.59 | 140739 | 144022
30 | 32:00.23 | 0:42.58 | 144023 | 147230
31 | 32:43.06 | 3:04.09 | 147231 | 161039
32 | 35:47.15 | 0:50.72 | 161040 | 164861
33 | 36:38.12 | 2:13.35 | 164862 | 174871
34 | 38:51.47 | 1:08.19 | 174872 | 179990
35 | 39:59.66 | 1:11.72 | 179991 | 185387
36 | 41:11.63 | 0:41.59 | 185388 | 188521
37 | 41:53.47 | 0:48.66 | 188522 | 192187
38 | 42:42.38 | 0:49.69 | 192188 | 195931
39 | 43:32.32 | 0:54.04 | 195932 | 199985
40 | 44:26.36 | 1:54.23 | 199986 | 208558
41 | 46:20.59 | 1:56.40 | 208559 | 217298
Range status and errors
Selected range
Filename D:\Rip\Bach_Edition-Vocal_Works.Chorales-Nordic_Chamber_Choir;Solists_Freiburger_Barockorch.,Nicol_Matt.4CD(Brilliant)\CD1\Chamber Choir of Europe; Solists Freiburger Barockorch. Nicol Matt - Bach Edition cd 137 - Vocal Works - Chorales.wav
Peak level 98.7 %
Extraction speed 4.0 X
Range quality 100.0 %
Test CRC 4E1F001A
Copy CRC 4E1F001A
Copy OK
No errors occurred
AccurateRip summary
Track 1 accurately ripped (confidence 18) [BC50CAFC] (AR v2)
Track 2 accurately ripped (confidence 18) [2925C0E5] (AR v2)
Track 3 accurately ripped (confidence 18) [24F2AC16] (AR v2)
Track 4 accurately ripped (confidence 18) [886E23D2] (AR v2)
Track 5 accurately ripped (confidence 18) [78FA832C] (AR v2)
Track 6 accurately ripped (confidence 18) [8E708C44] (AR v2)
Track 7 accurately ripped (confidence 18) [6F6A5C27] (AR v2)
Track 8 accurately ripped (confidence 18) [E08613FE] (AR v2)
Track 9 accurately ripped (confidence 18) [E91257B2] (AR v2)
Track 10 accurately ripped (confidence 18) [1FBC884E] (AR v2)
Track 11 accurately ripped (confidence 18) [E3BB27BC] (AR v2)
Track 12 accurately ripped (confidence 18) [7B8959C5] (AR v2)
Track 13 accurately ripped (confidence 18) [CD196D2A] (AR v2)
Track 14 accurately ripped (confidence 18) [656A6BDE] (AR v2)
Track 15 accurately ripped (confidence 18) [8F1948A6] (AR v2)
Track 16 accurately ripped (confidence 18) [9C3444AF] (AR v2)
Track 17 accurately ripped (confidence 18) [28CF24EE] (AR v2)
Track 18 accurately ripped (confidence 18) [0157E0C3] (AR v2)
Track 19 accurately ripped (confidence 18) [AB5EB865] (AR v2)
Track 20 accurately ripped (confidence 18) [0627127D] (AR v2)
Track 21 accurately ripped (confidence 18) [E812609C] (AR v2)
Track 22 accurately ripped (confidence 18) [F552801D] (AR v2)
Track 23 accurately ripped (confidence 18) [5EEA0D44] (AR v2)
Track 24 accurately ripped (confidence 18) [C585EFE2] (AR v2)
Track 25 accurately ripped (confidence 18) [314288FD] (AR v2)
Track 26 accurately ripped (confidence 18) [E9719AF0] (AR v2)
Track 27 accurately ripped (confidence 18) [473FEEF1] (AR v2)
Track 28 accurately ripped (confidence 18) [6C15983A] (AR v2)
Track 29 accurately ripped (confidence 18) [B6453176] (AR v2)
Track 30 accurately ripped (confidence 18) [1A3E283C] (AR v2)
Track 31 accurately ripped (confidence 18) [D8D001C8] (AR v2)
Track 32 accurately ripped (confidence 18) [9F640D94] (AR v2)
Track 33 accurately ripped (confidence 18) [8EA7E7D3] (AR v2)
Track 34 accurately ripped (confidence 18) [CBF530D0] (AR v2)
Track 35 accurately ripped (confidence 18) [061C5D6E] (AR v2)
Track 36 accurately ripped (confidence 18) [F35EF95D] (AR v2)
Track 37 accurately ripped (confidence 18) [AD59D4C0] (AR v2)
Track 38 accurately ripped (confidence 18) [F87EEC3C] (AR v2)
Track 39 accurately ripped (confidence 18) [59B047A5] (AR v2)
Track 40 accurately ripped (confidence 18) [FEE9F865] (AR v2)
Track 41 accurately ripped (confidence 18) [8454E0BF] (AR v2)
All tracks accurately ripped
End of status report
==== Log checksum AEECCC7981BBD4A2215E8841E9FE6EE2341A855045D308BFC462E2B2EAA31D58 ====

CD2

CD2
Exact Audio Copy V1.0 beta 3 from 29. August 2011
EAC extraction logfile from 8. February 2015, 17:35
Johann Sebastian Bach / Bach, J.S. - Vol.23 - Chorales CD2
Used drive : HL-DT-STDVDRAM GSA-T40N Adapter: 0 ID: 0
Read mode : Secure
Utilize accurate stream : Yes
Defeat audio cache : Yes
Make use of C2 pointers : No
Read offset correction : 667
Overread into Lead-In and Lead-Out : No
Fill up missing offset samples with silence : Yes
Delete leading and trailing silent blocks : No
Null samples used in CRC calculations : Yes
Used interface : Native Win32 interface for Win NT & 2000
Used output format : User Defined Encoder
Selected bitrate : 32 kBit/s
Quality : High
Add ID3 tag : No
Command line compressor : C:\Program Files\Exact Audio Copy\Flac\flac.exe
Additional command line options : -V -8 -T "Date=%year%" -T "Genre=%genre%" %source%
TOC of the extracted CD
Track | Start | Length | Start sector | End sector
---------------------------------------------------------
1 | 0:00.00 | 1:46.56 | 0 | 8005
2 | 1:46.56 | 1:22.13 | 8006 | 14168
3 | 3:08.69 | 1:29.04 | 14169 | 20847
4 | 4:37.73 | 1:21.17 | 20848 | 26939
5 | 5:59.15 | 1:49.04 | 26940 | 35118
6 | 7:48.19 | 0:41.35 | 35119 | 38228
7 | 8:29.54 | 1:09.55 | 38229 | 43458
8 | 9:39.34 | 1:05.24 | 43459 | 48357
9 | 10:44.58 | 0:59.63 | 48358 | 52845
10 | 11:44.46 | 1:07.39 | 52846 | 57909
11 | 12:52.10 | 1:08.13 | 57910 | 63022
12 | 14:00.23 | 1:07.20 | 63023 | 68067
13 | 15:07.43 | 1:04.21 | 68068 | 72888
14 | 16:11.64 | 0:59.08 | 72889 | 77321
15 | 17:10.72 | 0:51.41 | 77322 | 81187
16 | 18:02.38 | 0:45.64 | 81188 | 84626
17 | 18:48.27 | 1:00.64 | 84627 | 89190
18 | 19:49.16 | 1:36.40 | 89191 | 96430
19 | 21:25.56 | 0:36.01 | 96431 | 99131
20 | 22:01.57 | 0:34.60 | 99132 | 101741
21 | 22:36.42 | 0:36.29 | 101742 | 104470
22 | 23:12.71 | 0:53.08 | 104471 | 108453
23 | 24:06.04 | 0:53.63 | 108454 | 112491
24 | 24:59.67 | 1:39.67 | 112492 | 119983
25 | 26:39.59 | 1:38.04 | 119984 | 127337
26 | 28:17.63 | 1:05.05 | 127338 | 132217
27 | 29:22.68 | 1:58.41 | 132218 | 141108
28 | 31:21.34 | 0:39.54 | 141109 | 144087
29 | 32:01.13 | 0:52.41 | 144088 | 148028
30 | 32:53.54 | 0:47.72 | 148029 | 151625
31 | 33:41.51 | 1:19.43 | 151626 | 157593
32 | 35:01.19 | 0:37.48 | 157594 | 160416
33 | 35:38.67 | 0:44.68 | 160417 | 163784
34 | 36:23.60 | 1:05.34 | 163785 | 168693
35 | 37:29.19 | 1:06.39 | 168694 | 173682
36 | 38:35.58 | 1:01.62 | 173683 | 178319
37 | 39:37.45 | 0:50.74 | 178320 | 182143
38 | 40:28.44 | 0:45.25 | 182144 | 185543
39 | 41:13.69 | 0:46.54 | 185544 | 189047
40 | 42:00.48 | 0:51.12 | 189048 | 192884
41 | 42:51.60 | 0:50.55 | 192885 | 196689
42 | 43:42.40 | 0:51.34 | 196690 | 200548
43 | 44:33.74 | 0:42.30 | 200549 | 203728
44 | 45:16.29 | 1:03.64 | 203729 | 208517
45 | 46:20.18 | 1:48.66 | 208518 | 216683
46 | 48:09.09 | 0:50.35 | 216684 | 220468
47 | 48:59.44 | 0:41.24 | 220469 | 223567
48 | 49:40.68 | 0:46.70 | 223568 | 227087
49 | 50:27.63 | 0:52.31 | 227088 | 231018
50 | 51:20.19 | 1:32.68 | 231019 | 237986
51 | 52:53.12 | 0:54.65 | 237987 | 242101
52 | 53:48.02 | 1:38.20 | 242102 | 249471
53 | 55:26.22 | 0:43.62 | 249472 | 252758
54 | 56:10.09 | 0:55.74 | 252759 | 256957
55 | 57:06.08 | 0:56.49 | 256958 | 261206
56 | 58:02.57 | 0:56.02 | 261207 | 265408
57 | 58:58.59 | 0:55.18 | 265409 | 269551
Range status and errors
Selected range
Filename D:\Rip\Bach_Edition-Vocal_Works.Chorales-Nordic_Chamber_Choir;Solists_Freiburger_Barockorch.,Nicol_Matt.4CD(Brilliant)\CD2\Johann Sebastian Bach - Bach, J.S. - Vol.23 - Chorales CD2.wav
Peak level 88.5 %
Extraction speed 4.2 X
Range quality 100.0 %
Test CRC 049E12A7
Copy CRC 049E12A7
Copy OK
No errors occurred
AccurateRip summary
Track 1 accurately ripped (confidence 18) [679D75F0] (AR v2)
Track 2 accurately ripped (confidence 18) [DA9A56E7] (AR v2)
Track 3 accurately ripped (confidence 18) [B148C96C] (AR v2)
Track 4 accurately ripped (confidence 18) [34FDD12A] (AR v2)
Track 5 accurately ripped (confidence 18) [DAF4A882] (AR v2)
Track 6 accurately ripped (confidence 18) [E4C4F5A7] (AR v2)
Track 7 accurately ripped (confidence 18) [968A5738] (AR v2)
Track 8 accurately ripped (confidence 18) [341D6C36] (AR v2)
Track 9 accurately ripped (confidence 18) [E725CAA3] (AR v2)
Track 10 accurately ripped (confidence 18) [2BCB657E] (AR v2)
Track 11 accurately ripped (confidence 18) [18578FDA] (AR v2)
Track 12 accurately ripped (confidence 18) [C9FA36B6] (AR v2)
Track 13 accurately ripped (confidence 18) [1CE2FCD4] (AR v2)
Track 14 accurately ripped (confidence 18) [08655097] (AR v2)
Track 15 accurately ripped (confidence 18) [58AAF0B7] (AR v2)
Track 16 accurately ripped (confidence 18) [F35649D9] (AR v2)
Track 17 accurately ripped (confidence 18) [AADFFC2E] (AR v2)
Track 18 accurately ripped (confidence 18) [549BA58C] (AR v2)
Track 19 accurately ripped (confidence 18) [E3A5065B] (AR v2)
Track 20 accurately ripped (confidence 18) [57BA3794] (AR v2)
Track 21 accurately ripped (confidence 18) [B0203EFD] (AR v2)
Track 22 accurately ripped (confidence 18) [110028CD] (AR v2)
Track 23 accurately ripped (confidence 18) [C0B0C30B] (AR v2)
Track 24 accurately ripped (confidence 18) [893D8A18] (AR v2)
Track 25 accurately ripped (confidence 18) [099D0ECB] (AR v2)
Track 26 accurately ripped (confidence 18) [F034A366] (AR v2)
Track 27 accurately ripped (confidence 18) [68B7AC07] (AR v2)
Track 28 accurately ripped (confidence 18) [5727FFEE] (AR v2)
Track 29 accurately ripped (confidence 18) [290FFB41] (AR v2)
Track 30 accurately ripped (confidence 18) [79E20A6F] (AR v2)
Track 31 accurately ripped (confidence 18) [C7C4C6A9] (AR v2)
Track 32 accurately ripped (confidence 18) [9EEE1D2D] (AR v2)
Track 33 accurately ripped (confidence 18) [2852D857] (AR v2)
Track 34 accurately ripped (confidence 18) [36190638] (AR v2)
Track 35 accurately ripped (confidence 18) [0860AA21] (AR v2)
Track 36 accurately ripped (confidence 18) [7900AE4E] (AR v2)
Track 37 accurately ripped (confidence 18) [01758519] (AR v2)
Track 38 accurately ripped (confidence 18) [CF982EB7] (AR v2)
Track 39 accurately ripped (confidence 18) [4B73321C] (AR v2)
Track 40 accurately ripped (confidence 18) [E9BE9449] (AR v2)
Track 41 accurately ripped (confidence 18) [FD02E607] (AR v2)
Track 42 accurately ripped (confidence 18) [9D7D51DD] (AR v2)
Track 43 accurately ripped (confidence 18) [D963BE99] (AR v2)
Track 44 accurately ripped (confidence 18) [C95CD348] (AR v2)
Track 45 accurately ripped (confidence 18) [9354CB9B] (AR v2)
Track 46 accurately ripped (confidence 18) [60EA09C7] (AR v2)
Track 47 accurately ripped (confidence 18) [1BDE8005] (AR v2)
Track 48 accurately ripped (confidence 18) [F2E73716] (AR v2)
Track 49 accurately ripped (confidence 18) [A15B0262] (AR v2)
Track 50 accurately ripped (confidence 18) [B5692CBD] (AR v2)
Track 51 accurately ripped (confidence 18) [75449E47] (AR v2)
Track 52 accurately ripped (confidence 18) [65F20914] (AR v2)
Track 53 accurately ripped (confidence 18) [3F0D79BB] (AR v2)
Track 54 accurately ripped (confidence 18) [A4976404] (AR v2)
Track 55 accurately ripped (confidence 18) [F96B6F55] (AR v2)
Track 56 accurately ripped (confidence 18) [3638A515] (AR v2)
Track 57 accurately ripped (confidence 18) [D91ECC94] (AR v2)
All tracks accurately ripped
End of status report
==== Log checksum DBD734EDF681C1641A2DA445E71303E6CC9B0FFEC8E5EBE40DBEB3C293F513CD ====

CD3

CD3
Exact Audio Copy V1.0 beta 3 from 29. August 2011
EAC extraction logfile from 9. February 2015, 19:50
Chamber Choir of Europe; Solists Freiburger Barockorch. Nicol Matt / Bach Edition cd 139 - Vocal Works - Chorales
Used drive : HL-DT-STDVDRAM GSA-T40N Adapter: 0 ID: 0
Read mode : Secure
Utilize accurate stream : Yes
Defeat audio cache : Yes
Make use of C2 pointers : No
Read offset correction : 667
Overread into Lead-In and Lead-Out : No
Fill up missing offset samples with silence : Yes
Delete leading and trailing silent blocks : No
Null samples used in CRC calculations : Yes
Used interface : Native Win32 interface for Win NT & 2000
Used output format : User Defined Encoder
Selected bitrate : 32 kBit/s
Quality : High
Add ID3 tag : No
Command line compressor : C:\Program Files\Exact Audio Copy\Flac\flac.exe
Additional command line options : -V -8 -T "Date=%year%" -T "Genre=%genre%" %source%
TOC of the extracted CD
Track | Start | Length | Start sector | End sector
---------------------------------------------------------
1 | 0:00.00 | 0:45.49 | 0 | 3423
2 | 0:45.49 | 0:46.59 | 3424 | 6932
3 | 1:32.33 | 0:36.65 | 6933 | 9697
4 | 2:09.23 | 0:52.49 | 9698 | 13646
5 | 3:01.72 | 1:06.15 | 13647 | 18611
6 | 4:08.12 | 0:48.41 | 18612 | 22252
7 | 4:56.53 | 1:28.62 | 22253 | 28914
8 | 6:25.40 | 1:10.66 | 28915 | 34230
9 | 7:36.31 | 0:45.34 | 34231 | 37639
10 | 8:21.65 | 0:50.51 | 37640 | 41440
11 | 9:12.41 | 1:15.06 | 41441 | 47071
12 | 10:27.47 | 0:50.19 | 47072 | 50840
13 | 11:17.66 | 0:45.74 | 50841 | 54289
14 | 12:03.65 | 0:48.05 | 54290 | 57894
15 | 12:51.70 | 2:13.09 | 57895 | 67878
16 | 15:05.04 | 1:03.54 | 67879 | 72657
17 | 16:08.58 | 0:40.50 | 72658 | 75707
18 | 16:49.33 | 1:06.27 | 75708 | 80684
19 | 17:55.60 | 1:07.72 | 80685 | 85781
20 | 19:03.57 | 1:11.21 | 85782 | 91127
21 | 20:15.03 | 2:07.45 | 91128 | 100697
22 | 22:22.48 | 0:35.72 | 100698 | 103394
23 | 22:58.45 | 0:43.19 | 103395 | 106638
24 | 23:41.64 | 0:30.09 | 106639 | 108897
25 | 24:11.73 | 0:56.02 | 108898 | 113099
26 | 25:08.00 | 0:55.58 | 113100 | 117282
27 | 26:03.58 | 0:35.03 | 117283 | 119910
28 | 26:38.61 | 1:26.47 | 119911 | 126407
29 | 28:05.33 | 0:58.27 | 126408 | 130784
30 | 29:03.60 | 0:35.73 | 130785 | 133482
31 | 29:39.58 | 0:50.65 | 133483 | 137297
32 | 30:30.48 | 0:51.18 | 137298 | 141140
33 | 31:21.66 | 0:48.42 | 141141 | 144782
34 | 32:10.33 | 0:47.64 | 144783 | 148371
35 | 32:58.22 | 0:51.39 | 148372 | 152235
36 | 33:49.61 | 1:10.10 | 152236 | 157495
37 | 34:59.71 | 1:34.07 | 157496 | 164552
38 | 36:34.03 | 1:56.53 | 164553 | 173305
39 | 38:30.56 | 0:55.17 | 173306 | 177447
40 | 39:25.73 | 0:56.12 | 177448 | 181659
41 | 40:22.10 | 1:01.55 | 181660 | 186289
42 | 41:23.65 | 0:52.33 | 186290 | 190222
43 | 42:16.23 | 1:19.17 | 190223 | 196164
44 | 43:35.40 | 1:01.02 | 196165 | 200741
45 | 44:36.42 | 1:41.58 | 200742 | 208374
46 | 46:18.25 | 2:14.31 | 208375 | 218455
47 | 48:32.56 | 0:55.26 | 218456 | 222606
48 | 49:28.07 | 1:09.14 | 222607 | 227795
49 | 50:37.21 | 0:41.68 | 227796 | 230938
50 | 51:19.14 | 1:40.07 | 230939 | 238445
51 | 52:59.21 | 1:42.46 | 238446 | 246141
52 | 54:41.67 | 1:59.08 | 246142 | 255074
53 | 56:41.00 | 1:09.48 | 255075 | 260297
Range status and errors
Selected range
Filename D:\Rip\Bach_Edition-Vocal_Works.Chorales-Nordic_Chamber_Choir;Solists_Freiburger_Barockorch.,Nicol_Matt.4CD(Brilliant)\CD3\Chamber Choir of Europe; Solists Freiburger Barockorch. Nicol Matt - Bach Edition cd 139 - Vocal Works - Chorales.wav
Peak level 86.4 %
Extraction speed 4.1 X
Range quality 100.0 %
Test CRC 6992C364
Copy CRC 6992C364
Copy OK
No errors occurred
AccurateRip summary
Track 1 accurately ripped (confidence 18) [2C652794] (AR v2)
Track 2 accurately ripped (confidence 18) [99B8156C] (AR v2)
Track 3 accurately ripped (confidence 18) [89B690D3] (AR v2)
Track 4 accurately ripped (confidence 18) [08C9FF0A] (AR v2)
Track 5 accurately ripped (confidence 18) [1B190A84] (AR v2)
Track 6 accurately ripped (confidence 18) [EA0C1307] (AR v2)
Track 7 accurately ripped (confidence 18) [024AAFF7] (AR v2)
Track 8 accurately ripped (confidence 18) [200E6FFA] (AR v2)
Track 9 accurately ripped (confidence 18) [D9EEC868] (AR v2)
Track 10 accurately ripped (confidence 18) [E242F0BE] (AR v2)
Track 11 accurately ripped (confidence 18) [780FFD1F] (AR v2)
Track 12 accurately ripped (confidence 18) [E8F9C1DE] (AR v2)
Track 13 accurately ripped (confidence 18) [AA0EA096] (AR v2)
Track 14 accurately ripped (confidence 18) [8A8011E9] (AR v2)
Track 15 accurately ripped (confidence 18) [3EAC8C78] (AR v2)
Track 16 accurately ripped (confidence 18) [DFC896F8] (AR v2)
Track 17 accurately ripped (confidence 18) [B7D773B2] (AR v2)
Track 18 accurately ripped (confidence 18) [BA7597EF] (AR v2)
Track 19 accurately ripped (confidence 18) [9F1AB1BC] (AR v2)
Track 20 accurately ripped (confidence 18) [2A8A25B0] (AR v2)
Track 21 accurately ripped (confidence 18) [57BA045C] (AR v2)
Track 22 accurately ripped (confidence 18) [70DDACD0] (AR v2)
Track 23 accurately ripped (confidence 18) [1991477C] (AR v2)
Track 24 accurately ripped (confidence 18) [8FE73ACB] (AR v2)
Track 25 accurately ripped (confidence 18) [52636293] (AR v2)
Track 26 accurately ripped (confidence 18) [D90E5F3E] (AR v2)
Track 27 accurately ripped (confidence 18) [5962DBB3] (AR v2)
Track 28 accurately ripped (confidence 18) [76FF0882] (AR v2)
Track 29 accurately ripped (confidence 18) [9A1FA6F9] (AR v2)
Track 30 accurately ripped (confidence 18) [ED1E8F8D] (AR v2)
Track 31 accurately ripped (confidence 18) [A099CBAD] (AR v2)
Track 32 accurately ripped (confidence 17) [47201A1A] (AR v2)
Track 33 accurately ripped (confidence 18) [0DD42701] (AR v2)
Track 34 accurately ripped (confidence 18) [C2939E85] (AR v2)
Track 35 accurately ripped (confidence 18) [714D0CF0] (AR v2)
Track 36 accurately ripped (confidence 18) [F3EB62E7] (AR v2)
Track 37 accurately ripped (confidence 18) [9A4D45F2] (AR v2)
Track 38 accurately ripped (confidence 18) [8F49AC2E] (AR v2)
Track 39 accurately ripped (confidence 18) [5A82B14C] (AR v2)
Track 40 accurately ripped (confidence 18) [E11511FD] (AR v2)
Track 41 accurately ripped (confidence 18) [145324EF] (AR v2)
Track 42 accurately ripped (confidence 18) [C215B227] (AR v2)
Track 43 accurately ripped (confidence 18) [FD0C5E78] (AR v2)
Track 44 accurately ripped (confidence 18) [242EE6A8] (AR v2)
Track 45 accurately ripped (confidence 18) [015EEC35] (AR v2)
Track 46 accurately ripped (confidence 18) [1105B926] (AR v2)
Track 47 accurately ripped (confidence 18) [481D23AB] (AR v2)
Track 48 accurately ripped (confidence 18) [301F79D9] (AR v2)
Track 49 accurately ripped (confidence 18) [AF3EF117] (AR v2)
Track 50 accurately ripped (confidence 18) [3AD290AD] (AR v2)
Track 51 accurately ripped (confidence 18) [564969CD] (AR v2)
Track 52 accurately ripped (confidence 18) [790E2E85] (AR v2)
Track 53 accurately ripped (confidence 18) [7E8D5A00] (AR v2)
All tracks accurately ripped
End of status report
==== Log checksum AACC69D957F55EB9BE28E648E60EF22DCBB348B0D8B9FB96DE8B744B6D6AF175 ====

CD4

CD4
Exact Audio Copy V1.0 beta 3 from 29. August 2011
EAC extraction logfile from 10. February 2015, 19:50
Chamber Choir of Europe; Solists Freiburger Barockorch. Nicol Matt / Bach Edition cd 140 - Vocal Works - Chorales
Used drive : HL-DT-STDVDRAM GSA-T40N Adapter: 0 ID: 0
Read mode : Secure
Utilize accurate stream : Yes
Defeat audio cache : Yes
Make use of C2 pointers : No
Read offset correction : 667
Overread into Lead-In and Lead-Out : No
Fill up missing offset samples with silence : Yes
Delete leading and trailing silent blocks : No
Null samples used in CRC calculations : Yes
Used interface : Native Win32 interface for Win NT & 2000
Used output format : User Defined Encoder
Selected bitrate : 32 kBit/s
Quality : High
Add ID3 tag : No
Command line compressor : C:\Program Files\Exact Audio Copy\Flac\flac.exe
Additional command line options : -V -8 -T "Date=%year%" -T "Genre=%genre%" %source%
TOC of the extracted CD
Track | Start | Length | Start sector | End sector
---------------------------------------------------------
1 | 0:00.00 | 1:01.71 | 0 | 4645
2 | 1:01.71 | 0:43.43 | 4646 | 7913
3 | 1:45.39 | 0:59.40 | 7914 | 12378
4 | 2:45.04 | 0:49.66 | 12379 | 16119
5 | 3:34.70 | 0:58.54 | 16120 | 20523
6 | 4:33.49 | 1:46.29 | 20524 | 28502
7 | 6:20.03 | 1:34.71 | 28503 | 35623
8 | 7:54.74 | 0:53.40 | 35624 | 39638
9 | 8:48.39 | 0:35.57 | 39639 | 42320
10 | 9:24.21 | 0:30.52 | 42321 | 44622
11 | 9:54.73 | 6:44.31 | 44623 | 74953
12 | 16:39.29 | 0:50.09 | 74954 | 78712
13 | 17:29.38 | 1:00.53 | 78713 | 83265
14 | 18:30.16 | 0:53.50 | 83266 | 87290
15 | 19:23.66 | 0:55.13 | 87291 | 91428
16 | 20:19.04 | 0:34.27 | 91429 | 94005
17 | 20:53.31 | 0:55.25 | 94006 | 98155
18 | 21:48.56 | 1:01.74 | 98156 | 102804
19 | 22:50.55 | 0:57.67 | 102805 | 107146
20 | 23:48.47 | 1:51.17 | 107147 | 115488
21 | 25:39.64 | 0:37.33 | 115489 | 118296
22 | 26:17.22 | 0:48.20 | 118297 | 121916
23 | 27:05.42 | 0:49.36 | 121917 | 125627
24 | 27:55.03 | 1:04.44 | 125628 | 130471
25 | 28:59.47 | 1:02.21 | 130472 | 135142
26 | 30:01.68 | 1:04.46 | 135143 | 139988
27 | 31:06.39 | 1:35.66 | 139989 | 147179
28 | 32:42.30 | 1:33.46 | 147180 | 154200
29 | 34:16.01 | 1:16.04 | 154201 | 159904
30 | 35:32.05 | 1:01.22 | 159905 | 164501
31 | 36:33.27 | 0:41.48 | 164502 | 167624
32 | 37:15.00 | 1:05.60 | 167625 | 172559
33 | 38:20.60 | 1:00.11 | 172560 | 177070
34 | 39:20.71 | 1:02.63 | 177071 | 181783
35 | 40:23.59 | 0:59.69 | 181784 | 186277
36 | 41:23.53 | 1:03.33 | 186278 | 191035
37 | 42:27.11 | 0:42.52 | 191036 | 194237
38 | 43:09.63 | 1:07.38 | 194238 | 199300
39 | 44:17.26 | 0:45.38 | 199301 | 202713
40 | 45:02.64 | 2:18.65 | 202714 | 213128
41 | 47:21.54 | 1:11.03 | 213129 | 218456
42 | 48:32.57 | 1:10.26 | 218457 | 223732
43 | 49:43.08 | 1:11.41 | 223733 | 229098
44 | 50:54.49 | 1:02.03 | 229099 | 233751
45 | 51:56.52 | 1:01.54 | 233752 | 238380
46 | 52:58.31 | 1:29.00 | 238381 | 245055
47 | 54:27.31 | 1:03.09 | 245056 | 249789
48 | 55:30.40 | 1:12.38 | 249790 | 255227
49 | 56:43.03 | 2:04.56 | 255228 | 264583
50 | 58:47.59 | 1:07.59 | 264584 | 269667
Range status and errors
Selected range
Filename D:\Rip\Bach_Edition-Vocal_Works.Chorales-Nordic_Chamber_Choir;Solists_Freiburger_Barockorch.,Nicol_Matt.4CD(Brilliant)\CD4\Chamber Choir of Europe; Solists Freiburger Barockorch. Nicol Matt - Bach Edition cd 140 - Vocal Works - Chorales.wav
Peak level 88.5 %
Extraction speed 4.2 X
Range quality 99.9 %
Test CRC 1D77F78E
Copy CRC 1D77F78E
Copy OK
No errors occurred
AccurateRip summary
Track 1 accurately ripped (confidence 18) [BA0C1600] (AR v2)
Track 2 accurately ripped (confidence 18) [7E59CBA9] (AR v2)
Track 3 accurately ripped (confidence 18) [15D347ED] (AR v2)
Track 4 accurately ripped (confidence 18) [A5B5DB45] (AR v2)
Track 5 accurately ripped (confidence 18) [9A5916E5] (AR v2)
Track 6 accurately ripped (confidence 18) [3A2D968C] (AR v2)
Track 7 accurately ripped (confidence 18) [74CE7736] (AR v2)
Track 8 accurately ripped (confidence 18) [56FB8D01] (AR v2)
Track 9 accurately ripped (confidence 18) [6DAE27A2] (AR v2)
Track 10 accurately ripped (confidence 18) [A20066DB] (AR v2)
Track 11 accurately ripped (confidence 18) [BE87BD83] (AR v2)
Track 12 accurately ripped (confidence 18) [A1846885] (AR v2)
Track 13 accurately ripped (confidence 18) [25B8D909] (AR v2)
Track 14 accurately ripped (confidence 18) [81926196] (AR v2)
Track 15 accurately ripped (confidence 18) [B6ADA86E] (AR v2)
Track 16 accurately ripped (confidence 18) [E2795748] (AR v2)
Track 17 accurately ripped (confidence 18) [44C2C2BC] (AR v2)
Track 18 accurately ripped (confidence 18) [A9E8C2A4] (AR v2)
Track 19 accurately ripped (confidence 18) [9B283E2C] (AR v2)
Track 20 accurately ripped (confidence 18) [EE96D839] (AR v2)
Track 21 accurately ripped (confidence 18) [D257ADBA] (AR v2)
Track 22 accurately ripped (confidence 18) [AD340C28] (AR v2)
Track 23 accurately ripped (confidence 18) [30C2911B] (AR v2)
Track 24 accurately ripped (confidence 18) [CED4FABB] (AR v2)
Track 25 accurately ripped (confidence 18) [CAB0E782] (AR v2)
Track 26 accurately ripped (confidence 18) [D96F59BE] (AR v2)
Track 27 accurately ripped (confidence 18) [C634DD9A] (AR v2)
Track 28 accurately ripped (confidence 18) [A064C24F] (AR v2)
Track 29 accurately ripped (confidence 18) [8BE695F3] (AR v2)
Track 30 accurately ripped (confidence 18) [5011F333] (AR v2)
Track 31 accurately ripped (confidence 18) [A8445926] (AR v2)
Track 32 accurately ripped (confidence 18) [BC965E97] (AR v2)
Track 33 accurately ripped (confidence 18) [638A9A74] (AR v2)
Track 34 accurately ripped (confidence 18) [C4357C97] (AR v2)
Track 35 accurately ripped (confidence 18) [B596D722] (AR v2)
Track 36 accurately ripped (confidence 18) [2571DADF] (AR v2)
Track 37 accurately ripped (confidence 18) [3EE11474] (AR v2)
Track 38 accurately ripped (confidence 18) [61F38EE6] (AR v2)
Track 39 accurately ripped (confidence 18) [468B1F14] (AR v2)
Track 40 accurately ripped (confidence 18) [75C1C855] (AR v2)
Track 41 accurately ripped (confidence 18) [8E57620D] (AR v2)
Track 42 accurately ripped (confidence 18) [B30BAE1C] (AR v2)
Track 43 accurately ripped (confidence 18) [0F65E110] (AR v2)
Track 44 accurately ripped (confidence 18) [E546164D] (AR v2)
Track 45 accurately ripped (confidence 18) [3BAC73A3] (AR v2)
Track 46 accurately ripped (confidence 18) [D3F663E3] (AR v2)
Track 47 accurately ripped (confidence 18) [B25E8234] (AR v2)
Track 48 accurately ripped (confidence 18) [3DE207B0] (AR v2)
Track 49 accurately ripped (confidence 18) [61A6423D] (AR v2)
Track 50 accurately ripped (confidence 18) [F5EAFAA2] (AR v2)
All tracks accurately ripped
End of status report
==== Log checksum A75E53727877121FC729FF8253BA4EB1F695F915F828F005F3FAFB4029AD4BAA ====

Содержание индексной карты (.CUE)

CD1

CD1
REM GENRE Vocal
REM DATE 1999
REM DISCID 220B5129
REM COMMENT "ExactAudioCopy v1.0b3"
PERFORMER "Chamber Choir of Europe; Solists Freiburger Barockorch. Nicol Matt"
TITLE "Bach Edition cd 137 - Vocal Works - Chorales"
FILE "Chamber Choir of Europe; Solists Freiburger Barockorch. Nicol Matt - Bach Edition cd 137 - Vocal Works - Chorales.flac" WAVE
TRACK 01 AUDIO
TITLE "Als der gutige Gott, BWV 264"
PERFORMER "Chamber Choir of Europe; Solists Freiburger Barockorch. Nicol Matt"
FLAGS DCP
INDEX 01 00:00:00
TRACK 02 AUDIO
TITLE "Das neugeborne Kindelein, BWV 122"
PERFORMER "Chamber Choir of Europe; Solists Freiburger Barockorch. Nicol Matt"
FLAGS DCP
INDEX 01 01:04:56
TRACK 03 AUDIO
TITLE "Der Tag, der ist so freudenreich, BWV 294"
PERFORMER "Chamber Choir of Europe; Solists Freiburger Barockorch. Nicol Matt"
FLAGS DCP
INDEX 01 02:14:16
TRACK 04 AUDIO
TITLE "Ermuntre dich, mein schwacher Geist, BWV 248"
PERFORMER "Chamber Choir of Europe; Solists Freiburger Barockorch. Nicol Matt"
FLAGS DCP
INDEX 01 03:22:56
TRACK 05 AUDIO
TITLE "Freuet euch, ihr Christen alle, BWV 40"
PERFORMER "Chamber Choir of Europe; Solists Freiburger Barockorch. Nicol Matt"
FLAGS DCP
INDEX 01 05:15:05
TRACK 06 AUDIO
TITLE "Fur Freuden la.t uns singen, BWV 313"
PERFORMER "Chamber Choir of Europe; Solists Freiburger Barockorch. Nicol Matt"
FLAGS DCP
INDEX 01 07:18:15
TRACK 07 AUDIO
TITLE "Gelobet seist du, Jesu Christ, BWV 314"
PERFORMER "Chamber Choir of Europe; Solists Freiburger Barockorch. Nicol Matt"
FLAGS DCP
INDEX 01 08:06:42
TRACK 08 AUDIO
TITLE "Gelobet seist du, Jesu Christ, BWV 64"
PERFORMER "Chamber Choir of Europe; Solists Freiburger Barockorch. Nicol Matt"
FLAGS DCP
INDEX 01 08:47:46
TRACK 09 AUDIO
TITLE "Gelobet seist du, Jesu Christ, BWV 248"
PERFORMER "Chamber Choir of Europe; Solists Freiburger Barockorch. Nicol Matt"
FLAGS DCP
INDEX 01 09:27:66
TRACK 10 AUDIO
TITLE "Gott des Himmels und der Erden, BWV 248"
PERFORMER "Chamber Choir of Europe; Solists Freiburger Barockorch. Nicol Matt"
FLAGS DCP
INDEX 01 10:10:69
TRACK 11 AUDIO
TITLE "Gottes Sohn ist kommen, BWV 318"
PERFORMER "Chamber Choir of Europe; Solists Freiburger Barockorch. Nicol Matt"
FLAGS DCP
INDEX 01 10:58:20
TRACK 12 AUDIO
TITLE "Herzlich thut mich verlangen, BWV 248"
PERFORMER "Chamber Choir of Europe; Solists Freiburger Barockorch. Nicol Matt"
FLAGS DCP
INDEX 01 11:46:05
TRACK 13 AUDIO
TITLE "Ich freue mich in dir, BWV 133"
PERFORMER "Chamber Choir of Europe; Solists Freiburger Barockorch. Nicol Matt"
FLAGS DCP
INDEX 01 12:50:33
TRACK 14 AUDIO
TITLE "In dich hab’ ich gehoffet, Herr, BWV 248"
PERFORMER "Chamber Choir of Europe; Solists Freiburger Barockorch. Nicol Matt"
FLAGS DCP
INDEX 01 14:38:00
TRACK 15 AUDIO
TITLE "In dulci jubilo, BWV 368"
PERFORMER "Chamber Choir of Europe; Solists Freiburger Barockorch. Nicol Matt"
FLAGS DCP
INDEX 01 16:10:46
TRACK 16 AUDIO
TITLE "Lobt Gott, ihr Christen allzugleich, BWV 375"
PERFORMER "Chamber Choir of Europe; Solists Freiburger Barockorch. Nicol Matt"
FLAGS DCP
INDEX 01 17:03:21
TRACK 17 AUDIO
TITLE "Lobt Gott, ihr Christen allzugleich, BWV 151"
PERFORMER "Chamber Choir of Europe; Solists Freiburger Barockorch. Nicol Matt"
FLAGS DCP
INDEX 01 17:42:43
TRACK 18 AUDIO
TITLE "Nun freut euch, lieben Christen g’mein, BWV 388"
PERFORMER "Chamber Choir of Europe; Solists Freiburger Barockorch. Nicol Matt"
FLAGS DCP
INDEX 01 18:20:18
TRACK 19 AUDIO
TITLE "Nun freut euch, lieben Christen g’mein, BWV 307"
PERFORMER "Chamber Choir of Europe; Solists Freiburger Barockorch. Nicol Matt"
FLAGS DCP
INDEX 01 19:12:72
TRACK 20 AUDIO
TITLE "Nun freut euch, lieben Christen g’mein, BWV 248"
PERFORMER "Chamber Choir of Europe; Solists Freiburger Barockorch. Nicol Matt"
FLAGS DCP
INDEX 01 20:02:41
TRACK 21 AUDIO
TITLE "Nun komm, der Heiden Heiland, BWV 36"
PERFORMER "Chamber Choir of Europe; Solists Freiburger Barockorch. Nicol Matt"
FLAGS DCP
INDEX 01 20:59:61
TRACK 22 AUDIO
TITLE "Nun komm, der Heiden Heiland, BWV 62"
PERFORMER "Chamber Choir of Europe; Solists Freiburger Barockorch. Nicol Matt"
FLAGS DCP
INDEX 01 22:01:45
TRACK 23 AUDIO
TITLE "Puer Natus In Bethlehem, BWV 65"
PERFORMER "Chamber Choir of Europe; Solists Freiburger Barockorch. Nicol Matt"
FLAGS DCP
INDEX 01 22:36:26
TRACK 24 AUDIO
TITLE "Uns ist ein Kindlein heut’ gebor’n, BWV 414"
PERFORMER "Chamber Choir of Europe; Solists Freiburger Barockorch. Nicol Matt"
FLAGS DCP
INDEX 01 23:34:37
TRACK 25 AUDIO
TITLE "Vom Himmel hoch, da komm ich her, BWV 248"
PERFORMER "Chamber Choir of Europe; Solists Freiburger Barockorch. Nicol Matt"
FLAGS DCP
INDEX 01 24:26:12
TRACK 26 AUDIO
TITLE "Wachet auf, ruft uns die Stimme, BWV 140"
PERFORMER "Chamber Choir of Europe; Solists Freiburger Barockorch. Nicol Matt"
FLAGS DCP
INDEX 01 25:28:18
TRACK 27 AUDIO
TITLE "Warum sollt’ ich mich denn gramen, BWV 248"
PERFORMER "Chamber Choir of Europe; Solists Freiburger Barockorch. Nicol Matt"
FLAGS DCP
INDEX 01 28:25:25
TRACK 28 AUDIO
TITLE "Wir Christenleut’, BWV 40"
PERFORMER "Chamber Choir of Europe; Solists Freiburger Barockorch. Nicol Matt"
FLAGS DCP
INDEX 01 29:55:01
TRACK 29 AUDIO
TITLE "Wir Christenleut’, BWV 110"
PERFORMER "Chamber Choir of Europe; Solists Freiburger Barockorch. Nicol Matt"
FLAGS DCP
INDEX 01 31:16:39
TRACK 30 AUDIO
TITLE "Wir Christenleut’, BWV 248"
PERFORMER "Chamber Choir of Europe; Solists Freiburger Barockorch. Nicol Matt"
FLAGS DCP
INDEX 01 32:00:23
TRACK 31 AUDIO
TITLE "Kyrie, Gott Vater in Ewigkeit, BWV 371"
PERFORMER "Chamber Choir of Europe; Solists Freiburger Barockorch. Nicol Matt"
FLAGS DCP
INDEX 01 32:43:06
TRACK 32 AUDIO
TITLE "Allein Gott in der Hoh’ sei Ehr’, BWV 260"
PERFORMER "Chamber Choir of Europe; Solists Freiburger Barockorch. Nicol Matt"
FLAGS DCP
INDEX 01 35:47:15
TRACK 33 AUDIO
TITLE "Wir glauben all’ an einen Gott, BWV 437"
PERFORMER "Chamber Choir of Europe; Solists Freiburger Barockorch. Nicol Matt"
FLAGS DCP
INDEX 01 36:38:12
TRACK 34 AUDIO
TITLE "Heilig, heilig, BWV 325"
PERFORMER "Chamber Choir of Europe; Solists Freiburger Barockorch. Nicol Matt"
FLAGS DCP
INDEX 01 38:51:47
TRACK 35 AUDIO
TITLE "Santus, Sanctus Dominus Deus Sabaoth, BWV 325"
PERFORMER "Chamber Choir of Europe; Solists Freiburger Barockorch. Nicol Matt"
FLAGS DCP
INDEX 01 39:59:66
TRACK 36 AUDIO
TITLE "Dies sind die heil’gen zehn Gebot’, BWV 298"
PERFORMER "Chamber Choir of Europe; Solists Freiburger Barockorch. Nicol Matt"
FLAGS DCP
INDEX 01 41:11:63
TRACK 37 AUDIO
TITLE "Meine Seele erhebt den Herren, BWV 10"
PERFORMER "Chamber Choir of Europe; Solists Freiburger Barockorch. Nicol Matt"
FLAGS DCP
INDEX 01 41:53:47
TRACK 38 AUDIO
TITLE "Vater unser im Himmelreich, BWV 416"
PERFORMER "Chamber Choir of Europe; Solists Freiburger Barockorch. Nicol Matt"
FLAGS DCP
INDEX 01 42:42:38
TRACK 39 AUDIO
TITLE "Vater unser im Himmelreich, BWV 245"
PERFORMER "Chamber Choir of Europe; Solists Freiburger Barockorch. Nicol Matt"
FLAGS DCP
INDEX 01 43:32:32
TRACK 40 AUDIO
TITLE "Verleih’ uns Frieden genadiglich, BWV 126"
PERFORMER "Chamber Choir of Europe; Solists Freiburger Barockorch. Nicol Matt"
FLAGS DCP
INDEX 01 44:26:36
TRACK 41 AUDIO
TITLE "Verleih’ uns Frieden genadiglich, BWV 42"
PERFORMER "Chamber Choir of Europe; Solists Freiburger Barockorch. Nicol Matt"
FLAGS DCP
INDEX 01 46:20:59

CD2

CD2
REM GENRE Classical
REM DATE 1999
REM DISCID 240E0A39
REM COMMENT "ExactAudioCopy v1.0b3"
PERFORMER "Johann Sebastian Bach"
TITLE "Bach, J.S. - Vol.23 - Chorales CD2 "
FILE "Johann Sebastian Bach - Bach, J.S. - Vol.23 - Chorales CD2.flac" WAVE
TRACK 01 AUDIO
TITLE "Ah! Dieu, du Ciel Jette un Regard vers Nous, BVW 2 - Cantate"
PERFORMER "Johann Sebastian Bach"
FLAGS DCP
INDEX 01 00:00:00
TRACK 02 AUDIO
TITLE "Oh, Mon Dieu, que de Difficultes, BVW 153 - Cantate"
PERFORMER "Johann Sebastian Bach"
FLAGS DCP
INDEX 01 01:46:56
TRACK 03 AUDIO
TITLE "Comme Jesus-Christ la Nuit ou Il Fut Trahi, BVW 265"
PERFORMER "Johann Sebastian Bach"
FLAGS DCP
INDEX 01 03:08:69
TRACK 04 AUDIO
TITLE "Les Rivieres de Babylone, BVW 267"
PERFORMER "Johann Sebastian Bach"
FLAGS DCP
INDEX 01 04:37:73
TRACK 05 AUDIO
TITLE "Christ Est Ressuscite, BWV 276"
PERFORMER "Johann Sebastian Bach"
FLAGS DCP
INDEX 01 05:59:15
TRACK 06 AUDIO
TITLE "Christ Est Ressuscite, BWV 66 - Cantate"
PERFORMER "Johann Sebastian Bach"
FLAGS DCP
INDEX 01 07:48:19
TRACK 07 AUDIO
TITLE "Christ Gisait dans les Bras de la Mort, BWV 277"
PERFORMER "Johann Sebastian Bach"
FLAGS DCP
INDEX 01 08:29:54
TRACK 08 AUDIO
TITLE "Christ Gisait dans les Bras de la Mort, BWV 278"
PERFORMER "Johann Sebastian Bach"
FLAGS DCP
INDEX 01 09:39:34
TRACK 09 AUDIO
TITLE "Christ Gisait dans les Bras de la Mort, BWV 279"
PERFORMER "Johann Sebastian Bach"
FLAGS DCP
INDEX 01 10:44:58
TRACK 10 AUDIO
TITLE "Christ Gisait dans les Bras de la Mort, BWV 4 - Cantate"
PERFORMER "Johann Sebastian Bach"
FLAGS DCP
INDEX 01 11:44:46
TRACK 11 AUDIO
TITLE "Le Christ qui Nous Fait Bienheureux, BWV 283"
PERFORMER "Johann Sebastian Bach"
FLAGS DCP
INDEX 01 12:52:10
TRACK 12 AUDIO
TITLE "Le Christ qui Nous Fait Bienheureux, BWV 245 - La Passion selon St Jean"
PERFORMER "Johann Sebastian Bach"
FLAGS DCP
INDEX 01 14:00:23
TRACK 13 AUDIO
TITLE "Le Christ qui Nous Fait Bienheureux, BWV 245 - La Passion selon St Jean"
PERFORMER "Johann Sebastian Bach"
FLAGS DCP
INDEX 01 15:07:43
TRACK 14 AUDIO
TITLE "Christus ist erstanden, hat ueberwunden BWV 284"
PERFORMER "Johann Sebastian Bach"
FLAGS DCP
INDEX 01 16:11:64
TRACK 15 AUDIO
TITLE "Da der Herr Christ zu Tische sass, BWV 285"
PERFORMER "Johann Sebastian Bach"
FLAGS DCP
INDEX 01 17:10:72
TRACK 16 AUDIO
TITLE "La Grace de l'Esprit-Saint, BWV 205"
PERFORMER "Johann Sebastian Bach"
FLAGS DCP
INDEX 01 18:02:38
TRACK 17 AUDIO
TITLE "Salut, Homme de Douleurs, BWV 300"
PERFORMER "Johann Sebastian Bach"
FLAGS DCP
INDEX 01 18:48:27
TRACK 18 AUDIO
TITLE "Rejouis-Toi, Mon Esprit Faible, BWV 43 - Cantate"
PERFORMER "Johann Sebastian Bach"
FLAGS DCP
INDEX 01 19:49:16
TRACK 19 AUDIO
TITLE "Voici le Jour Resplendissant, BWV 67 - Cantate"
PERFORMER "Johann Sebastian Bach"
FLAGS DCP
INDEX 01 21:25:56
TRACK 20 AUDIO
TITLE "Voici le Jour Resplendissant, BWV 145 - Cantate"
PERFORMER "Johann Sebastian Bach"
FLAGS DCP
INDEX 01 22:01:57
TRACK 21 AUDIO
TITLE "Il Est Vivant, le Christ Jesus, BWV 306"
PERFORMER "Johann Sebastian Bach"
FLAGS DCP
INDEX 01 22:36:42
TRACK 22 AUDIO
TITLE "Le Salut Nous Est Venu, BWV 9 - Cantate"
PERFORMER "Johann Sebastian Bach"
FLAGS DCP
INDEX 01 23:12:71
TRACK 23 AUDIO
TITLE "Le Salut Nous Est Venu, BWV 155 - Cantate"
PERFORMER "Johann Sebastian Bach"
FLAGS DCP
INDEX 01 24:06:04
TRACK 24 AUDIO
TITLE "Louons le Christ qui Nous Est Favorable, BWV 322"
PERFORMER "Johann Sebastian Bach"
FLAGS DCP
INDEX 01 24:59:67
TRACK 25 AUDIO
TITLE "Je t'Aime de Tout Coeur, Seigneur, BWV 245 - La Passion selon St Jean"
PERFORMER "Johann Sebastian Bach"
FLAGS DCP
INDEX 01 26:39:59
TRACK 26 AUDIO
TITLE "Mon Coeur Est Rempli de Desir, BWV 244 - La Passion selon St Matthieu"
PERFORMER "Johann Sebastian Bach"
FLAGS DCP
INDEX 01 28:17:63
TRACK 27 AUDIO
TITLE "Mon Coeur Est Rempli de Desir, BWV 244 - La Passion selon St Matthieu"
PERFORMER "Johann Sebastian Bach"
FLAGS DCP
INDEX 01 29:22:68
TRACK 28 AUDIO
TITLE "Jesus Bien-Aime, qu'As-Tu donc Fait, BWV 244 - La Passion selon St Matthieu"
PERFORMER "Johann Sebastian Bach"
FLAGS DCP
INDEX 01 31:21:34
TRACK 29 AUDIO
TITLE "Jesus Bien-Aime, qu'As-Tu donc Fait, BWV 244 - La Passion selon St Matthieu"
PERFORMER "Johann Sebastian Bach"
FLAGS DCP
INDEX 01 32:01:13
TRACK 30 AUDIO
TITLE "Jesus Bien-Aime, qu'As-Tu donc Fait, BWV 245 - La Passion selon St Jean"
PERFORMER "Johann Sebastian Bach"
FLAGS DCP
INDEX 01 32:53:54
TRACK 31 AUDIO
TITLE "Jesus Bien-Aime, qu'As-Tu donc Fait, BWV 245 - La Passion selon St Jean"
PERFORMER "Johann Sebastian Bach"
FLAGS DCP
INDEX 01 33:41:51
TRACK 32 AUDIO
TITLE "O Homme, aujourd'hui Est un Grand Jour d'Affliction, BWV 341"
PERFORMER "Johann Sebastian Bach"
FLAGS DCP
INDEX 01 35:01:19
TRACK 33 AUDIO
TITLE "Aujourd'hui Triomphe le Fils de Dieu, BWV 342"
PERFORMER "Johann Sebastian Bach"
FLAGS DCP
INDEX 01 35:38:67
TRACK 34 AUDIO
TITLE "La Passion de Jesus, la Douleur et la Mort, BWV 245 - La Passion selon St Jean"
PERFORMER "Johann Sebastian Bach"
FLAGS DCP
INDEX 01 36:23:60
TRACK 35 AUDIO
TITLE "La Passion de Jesus, la Douleur et la Mort, BWV 245 - La Passion selon St Jean"
PERFORMER "Johann Sebastian Bach"
FLAGS DCP
INDEX 01 37:29:19
TRACK 36 AUDIO
TITLE "La Passion de Jesus, la Douleur et la Mort, BWV 159 - Cantate"
PERFORMER "Johann Sebastian Bach"
FLAGS DCP
INDEX 01 38:35:58
TRACK 37 AUDIO
TITLE "Jesus Christ, Notre Sauveur, BWV 363"
PERFORMER "Johann Sebastian Bach"
FLAGS DCP
INDEX 01 39:37:45
TRACK 38 AUDIO
TITLE "Jesus Christ, Notre Sauveur, BWV 364"
PERFORMER "Johann Sebastian Bach"
FLAGS DCP
INDEX 01 40:28:44
TRACK 39 AUDIO
TITLE "Jesus, Ma Confiance, BWV 145 - Cantate"
PERFORMER "Johann Sebastian Bach"
FLAGS DCP
INDEX 01 41:13:69
TRACK 40 AUDIO
TITLE "J'ai Mis Mon Espoir en Toi, Seigneur, BWV 244 - La Passion selon St Matthieu"
PERFORMER "Johann Sebastian Bach"
FLAGS DCP
INDEX 01 42:00:48
TRACK 41 AUDIO
TITLE "Fais de Moi, Dieu, selon Ta Bonte, BWV 245 - La Passion selon St Jean"
PERFORMER "Johann Sebastian Bach"
FLAGS DCP
INDEX 01 42:51:60
TRACK 42 AUDIO
TITLE "Je ne Laisserai pas Jesus Aller, BWV 244 - La Passion selon St Matthieu"
PERFORMER "Johann Sebastian Bach"
FLAGS DCP
INDEX 01 43:42:40
TRACK 43 AUDIO
TITLE "O Herzensangst, o Bangigkeit und Zagen, BWV 400"
PERFORMER "Johann Sebastian Bach"
FLAGS DCP
INDEX 01 44:33:74
TRACK 44 AUDIO
TITLE "Toi, l'Agneau de Dieu, Innocent, BWV 401 - unschuldig"
PERFORMER "Johann Sebastian Bach"
FLAGS DCP
INDEX 01 45:16:29
TRACK 45 AUDIO
TITLE "O Homme, Deplore Ton Grand Peche, BWV 402"
PERFORMER "Johann Sebastian Bach"
FLAGS DCP
INDEX 01 46:20:18
TRACK 46 AUDIO
TITLE "O Homme, Regarde Jesus-Christ, BWV 403"
PERFORMER "Johann Sebastian Bach"
FLAGS DCP
INDEX 01 48:09:09
TRACK 47 AUDIO
TITLE "O Tristesse, O Affliction, BWV 404"
PERFORMER "Johann Sebastian Bach"
FLAGS DCP
INDEX 01 48:59:44
TRACK 48 AUDIO
TITLE "O Monde, Je Dois Te Quitter, BWV 394"
PERFORMER "Johann Sebastian Bach"
FLAGS DCP
INDEX 01 49:40:68
TRACK 49 AUDIO
TITLE "O Monde, Je Dois Te Quitter, BWV 244 - La Passion selon St Matthieu"
PERFORMER "Johann Sebastian Bach"
FLAGS DCP
INDEX 01 50:27:63
TRACK 50 AUDIO
TITLE "O Monde, Je Dois Te Quitter, BWV 245 - La Passion selon St Jean"
PERFORMER "Johann Sebastian Bach"
FLAGS DCP
INDEX 01 51:20:19
TRACK 51 AUDIO
TITLE "O Monde, Je Dois Te Quitter, BWV 244 - La Passion selon St Matthieu"
PERFORMER "Johann Sebastian Bach"
FLAGS DCP
INDEX 01 52:53:12
TRACK 52 AUDIO
TITLE "O Nous, Pauvres Pecheurs, BWV 407"
PERFORMER "Johann Sebastian Bach"
FLAGS DCP
INDEX 01 53:48:02
TRACK 53 AUDIO
TITLE "Regarde, Pecheur, BWV 408"
PERFORMER "Johann Sebastian Bach"
FLAGS DCP
INDEX 01 55:26:22
TRACK 54 AUDIO
TITLE "Je T'Accueille, Jesus Misericordieux, BWV 410"
PERFORMER "Johann Sebastian Bach"
FLAGS DCP
INDEX 01 56:10:09
TRACK 55 AUDIO
TITLE "Jesus, Donne Moi Maintenant un Bon Sommeil, BWV 412"
PERFORMER "Johann Sebastian Bach"
FLAGS DCP
INDEX 01 57:06:08
TRACK 56 AUDIO
TITLE "Je Veux Prendre Conge de Toi, BWV 245 - La Passion selon St Jean"
PERFORMER "Johann Sebastian Bach"
FLAGS DCP
INDEX 01 58:02:57
TRACK 57 AUDIO
TITLE "Rejouis-Toi, Mon Ame, BWV 244 - La Passion selon St Matthieu"
PERFORMER "Johann Sebastian Bach"
FLAGS DCP
INDEX 01 58:58:59

CD3

CD3
REM GENRE Vocal
REM DATE 1999
REM DISCID DA0D8E35
REM COMMENT "ExactAudioCopy v1.0b3"
PERFORMER "Chamber Choir of Europe; Solists Freiburger Barockorch. Nicol Matt"
TITLE "Bach Edition cd 139 - Vocal Works - Chorales"
FILE "Chamber Choir of Europe; Solists Freiburger Barockorch. Nicol Matt - Bach Edition cd 139 - Vocal Works - Chorales.flac" WAVE
TRACK 01 AUDIO
TITLE "Ach bleib bei uns, Herr Jesu Christ, BWV 253"
PERFORMER "Chamber Choir of Europe; Solists Freiburger Barockorch. Nicol Matt"
FLAGS DCP
INDEX 01 00:00:00
TRACK 02 AUDIO
TITLE "Ach Gott, erhor’ mein Seufzen!, BWV 254"
PERFORMER "Chamber Choir of Europe; Solists Freiburger Barockorch. Nicol Matt"
FLAGS DCP
INDEX 01 00:45:49
TRACK 03 AUDIO
TITLE "Ach Gott und Herr, BWV 255"
PERFORMER "Chamber Choir of Europe; Solists Freiburger Barockorch. Nicol Matt"
FLAGS DCP
INDEX 01 01:32:33
TRACK 04 AUDIO
TITLE "Ach Gott, vom Himmel sieh’ darein, BWV 153 - Cantate"
PERFORMER "Chamber Choir of Europe; Solists Freiburger Barockorch. Nicol Matt"
FLAGS DCP
INDEX 01 02:09:23
TRACK 05 AUDIO
TITLE "Ach Gott, wie manches Herzeleid, BWV 3 - Cantate"
PERFORMER "Chamber Choir of Europe; Solists Freiburger Barockorch. Nicol Matt"
FLAGS DCP
INDEX 01 03:01:72
TRACK 06 AUDIO
TITLE "Ach, was soll ich Sunder machen, BWV 259"
PERFORMER "Chamber Choir of Europe; Solists Freiburger Barockorch. Nicol Matt"
FLAGS DCP
INDEX 01 04:08:12
TRACK 07 AUDIO
TITLE "Allein zu dir, Herr Jesu Christ, BWV 261"
PERFORMER "Chamber Choir of Europe; Solists Freiburger Barockorch. Nicol Matt"
FLAGS DCP
INDEX 01 04:56:53
TRACK 08 AUDIO
TITLE "Alle Menschen mussen sterben, BWV 162 - Cantate"
PERFORMER "Chamber Choir of Europe; Solists Freiburger Barockorch. Nicol Matt"
FLAGS DCP
INDEX 01 06:25:40
TRACK 09 AUDIO
TITLE "Auf, auf, mein Herz, und du mein ganzer Sinn, BWV 268"
PERFORMER "Chamber Choir of Europe; Solists Freiburger Barockorch. Nicol Matt"
FLAGS DCP
INDEX 01 07:36:31
TRACK 10 AUDIO
TITLE "Auf meinen lieben Gott, BWV 188 - Cantate"
PERFORMER "Chamber Choir of Europe; Solists Freiburger Barockorch. Nicol Matt"
FLAGS DCP
INDEX 01 08:21:65
TRACK 11 AUDIO
TITLE "Auf meinen lieben Gott, BWV 89 - Cantate"
PERFORMER "Chamber Choir of Europe; Solists Freiburger Barockorch. Nicol Matt"
FLAGS DCP
INDEX 01 09:12:41
TRACK 12 AUDIO
TITLE "Auf meinen lieben Gott, BWV 5 - Cantate"
PERFORMER "Chamber Choir of Europe; Solists Freiburger Barockorch. Nicol Matt"
FLAGS DCP
INDEX 01 10:27:47
TRACK 13 AUDIO
TITLE "Auf meinen lieben Gott, BWV 148 - Cantate"
PERFORMER "Chamber Choir of Europe; Solists Freiburger Barockorch. Nicol Matt"
FLAGS DCP
INDEX 01 11:17:66
TRACK 14 AUDIO
TITLE "Aus meines Herzens Grunde, BWV 269"
PERFORMER "Chamber Choir of Europe; Solists Freiburger Barockorch. Nicol Matt"
FLAGS DCP
INDEX 01 12:03:65
TRACK 15 AUDIO
TITLE "Aus tiefer Noth schrei ich zu dir, BWV 38 - Cantate"
PERFORMER "Chamber Choir of Europe; Solists Freiburger Barockorch. Nicol Matt"
FLAGS DCP
INDEX 01 12:51:70
TRACK 16 AUDIO
TITLE "Befiehl du deine Wege, BWV 272"
PERFORMER "Chamber Choir of Europe; Solists Freiburger Barockorch. Nicol Matt"
FLAGS DCP
INDEX 01 15:05:04
TRACK 17 AUDIO
TITLE "Christ, der du bist der helle Tag, BWV 273"
PERFORMER "Chamber Choir of Europe; Solists Freiburger Barockorch. Nicol Matt"
FLAGS DCP
INDEX 01 16:08:58
TRACK 18 AUDIO
TITLE "Christe, der du bist Tag und Licht, BWV 274"
PERFORMER "Chamber Choir of Europe; Solists Freiburger Barockorch. Nicol Matt"
FLAGS DCP
INDEX 01 16:49:33
TRACK 19 AUDIO
TITLE "Christe, du Beistand deiner Kreuzgemeinde, BWV 275"
PERFORMER "Chamber Choir of Europe; Solists Freiburger Barockorch. Nicol Matt"
FLAGS DCP
INDEX 01 17:55:60
TRACK 20 AUDIO
TITLE "Christ, unser Herr, zum Jordan kam, BWV 280"
PERFORMER "Chamber Choir of Europe; Solists Freiburger Barockorch. Nicol Matt"
FLAGS DCP
INDEX 01 19:03:57
TRACK 21 AUDIO
TITLE "Christ, unser Herr, zum Jordan kam, BWV 176 - Cantate"
PERFORMER "Chamber Choir of Europe; Solists Freiburger Barockorch. Nicol Matt"
FLAGS DCP
INDEX 01 20:15:03
TRACK 22 AUDIO
TITLE "Christus, der ist mein Leben, BWV 281"
PERFORMER "Chamber Choir of Europe; Solists Freiburger Barockorch. Nicol Matt"
FLAGS DCP
INDEX 01 22:22:48
TRACK 23 AUDIO
TITLE "Christus, der ist mein Leben, BWV 282"
PERFORMER "Chamber Choir of Europe; Solists Freiburger Barockorch. Nicol Matt"
FLAGS DCP
INDEX 01 22:58:45
TRACK 24 AUDIO
TITLE "Danket dem Herrn, denn er ist freundlich, BWV 286"
PERFORMER "Chamber Choir of Europe; Solists Freiburger Barockorch. Nicol Matt"
FLAGS DCP
INDEX 01 23:41:64
TRACK 25 AUDIO
TITLE "Dank sei Gott in der Hohe, BWV 287"
PERFORMER "Chamber Choir of Europe; Solists Freiburger Barockorch. Nicol Matt"
FLAGS DCP
INDEX 01 24:11:73
TRACK 26 AUDIO
TITLE "Das alte Jahr vergangen ist, BWV 288"
PERFORMER "Chamber Choir of Europe; Solists Freiburger Barockorch. Nicol Matt"
FLAGS DCP
INDEX 01 25:08:00
TRACK 27 AUDIO
TITLE "Das walt’ Gott Vater und Gott Sohn, BWV 290"
PERFORMER "Chamber Choir of Europe; Solists Freiburger Barockorch. Nicol Matt"
FLAGS DCP
INDEX 01 26:03:58
TRACK 28 AUDIO
TITLE "Das walt’ mein Gott, BWV 291"
PERFORMER "Chamber Choir of Europe; Solists Freiburger Barockorch. Nicol Matt"
FLAGS DCP
INDEX 01 26:38:61
TRACK 29 AUDIO
TITLE "Den Vater dort oben, BWV 292"
PERFORMER "Chamber Choir of Europe; Solists Freiburger Barockorch. Nicol Matt"
FLAGS DCP
INDEX 01 28:05:33
TRACK 30 AUDIO
TITLE "Der du bist drei in Einigkeit, BWV 293"
PERFORMER "Chamber Choir of Europe; Solists Freiburger Barockorch. Nicol Matt"
FLAGS DCP
INDEX 01 29:03:60
TRACK 31 AUDIO
TITLE "Die Nacht ist kommen, BWV 296"
PERFORMER "Chamber Choir of Europe; Solists Freiburger Barockorch. Nicol Matt"
FLAGS DCP
INDEX 01 29:39:58
TRACK 32 AUDIO
TITLE "Die Sonn' hat sich mit ihrem Glanz, BWV 297"
PERFORMER "Chamber Choir of Europe; Solists Freiburger Barockorch. Nicol Matt"
FLAGS DCP
INDEX 01 30:30:48
TRACK 33 AUDIO
TITLE "Dir, dir, Jehova, will ich singen, BWV 299"
PERFORMER "Chamber Choir of Europe; Solists Freiburger Barockorch. Nicol Matt"
FLAGS DCP
INDEX 01 31:21:66
TRACK 34 AUDIO
TITLE "Du Friedefurst, Herr Jesu Christ, BWV 67 - Cantate"
PERFORMER "Chamber Choir of Europe; Solists Freiburger Barockorch. Nicol Matt"
FLAGS DCP
INDEX 01 32:10:33
TRACK 35 AUDIO
TITLE "Du Friedefurst, Herr Jesu Christ, BWV 116 - Cantate"
PERFORMER "Chamber Choir of Europe; Solists Freiburger Barockorch. Nicol Matt"
FLAGS DCP
INDEX 01 32:58:22
TRACK 36 AUDIO
TITLE "Du, o schones Weltgebaude, BWV 301"
PERFORMER "Chamber Choir of Europe; Solists Freiburger Barockorch. Nicol Matt"
FLAGS DCP
INDEX 01 33:49:61
TRACK 37 AUDIO
TITLE "Du, o schones Weltgebaude, BWV 56 - Cantate"
PERFORMER "Chamber Choir of Europe; Solists Freiburger Barockorch. Nicol Matt"
FLAGS DCP
INDEX 01 34:59:71
TRACK 38 AUDIO
TITLE "Durch Adams Fall ist ganz verderbt, BWV 18 - Cantate"
PERFORMER "Chamber Choir of Europe; Solists Freiburger Barockorch. Nicol Matt"
FLAGS DCP
INDEX 01 36:34:03
TRACK 39 AUDIO
TITLE "Ein’ feste Burg ist unser Gott, BWV 302"
PERFORMER "Chamber Choir of Europe; Solists Freiburger Barockorch. Nicol Matt"
FLAGS DCP
INDEX 01 38:30:56
TRACK 40 AUDIO
TITLE "Ein’ feste Burg ist unser Gott, BWV 303"
PERFORMER "Chamber Choir of Europe; Solists Freiburger Barockorch. Nicol Matt"
FLAGS DCP
INDEX 01 39:25:73
TRACK 41 AUDIO
TITLE "Ein’ feste Burg ist unser Gott, BWV 80 - Cantate"
PERFORMER "Chamber Choir of Europe; Solists Freiburger Barockorch. Nicol Matt"
FLAGS DCP
INDEX 01 40:22:10
TRACK 42 AUDIO
TITLE "Eins ist noth, ach Herr, dies Eine, BWV 304"
PERFORMER "Chamber Choir of Europe; Solists Freiburger Barockorch. Nicol Matt"
FLAGS DCP
INDEX 01 41:23:65
TRACK 43 AUDIO
TITLE "Erbarm’ dich mein, o Herre Gott, BWV 305"
PERFORMER "Chamber Choir of Europe; Solists Freiburger Barockorch. Nicol Matt"
FLAGS DCP
INDEX 01 42:16:23
TRACK 44 AUDIO
TITLE "Erhalt’ uns, Herr, bei deinem Wort, BWV 6 - Cantate"
PERFORMER "Chamber Choir of Europe; Solists Freiburger Barockorch. Nicol Matt"
FLAGS DCP
INDEX 01 43:35:40
TRACK 45 AUDIO
TITLE "Es ist das Heil uns kommen her, BWV 117 - Cantate"
PERFORMER "Chamber Choir of Europe; Solists Freiburger Barockorch. Nicol Matt"
FLAGS DCP
INDEX 01 44:36:42
TRACK 46 AUDIO
TITLE "Es ist genug; so nimm, Herr, meinen Geist, BWV 60 - Cantate"
PERFORMER "Chamber Choir of Europe; Solists Freiburger Barockorch. Nicol Matt"
FLAGS DCP
INDEX 01 46:18:25
TRACK 47 AUDIO
TITLE "Es spricht der Unweisen Mund wohl, BWV 308"
PERFORMER "Chamber Choir of Europe; Solists Freiburger Barockorch. Nicol Matt"
FLAGS DCP
INDEX 01 48:32:56
TRACK 48 AUDIO
TITLE "Es steh'n vor Gottes Throne, BWV 309"
PERFORMER "Chamber Choir of Europe; Solists Freiburger Barockorch. Nicol Matt"
FLAGS DCP
INDEX 01 49:28:07
TRACK 49 AUDIO
TITLE "Es wir schier der letzte Tag herkommen, BWV 310"
PERFORMER "Chamber Choir of Europe; Solists Freiburger Barockorch. Nicol Matt"
FLAGS DCP
INDEX 01 50:37:21
TRACK 50 AUDIO
TITLE "Es woll’ uns Gott genadig sein, BWV 312"
PERFORMER "Chamber Choir of Europe; Solists Freiburger Barockorch. Nicol Matt"
FLAGS DCP
INDEX 01 51:19:14
TRACK 51 AUDIO
TITLE "Freu dich sehr, o meine Seele, BWV 70 - Cantate"
PERFORMER "Chamber Choir of Europe; Solists Freiburger Barockorch. Nicol Matt"
FLAGS DCP
INDEX 01 52:59:21
TRACK 52 AUDIO
TITLE "Freu dich sehr, o meine Seele, BWV 39 - Cantate"
PERFORMER "Chamber Choir of Europe; Solists Freiburger Barockorch. Nicol Matt"
FLAGS DCP
INDEX 01 54:41:67
TRACK 53 AUDIO
TITLE "Gib dich zufrieden und sei stille, BWV 315"
PERFORMER "Chamber Choir of Europe; Solists Freiburger Bar
[teatrix.ru].t7864.torrent 
Торрент: Зарегистрирован [ 2015-10-14 02:42 ] · 2532A41B5F771E81A1AFAF134E6EDEE712EB6D6B

Скачать .torrent

Скачать

23 KB

Статус: проверено
Скачан: 0 раз
Размер: 984 MB
terms.php



Быстрый ответ

Имя:

      
Для отправки сообщений необходимо включить JavaScript
Показать сообщения:    

Текущее время: 05-Дек 21:34

Часовой пояс: UTC + 3


Вы можете начинать темы
Вы можете отвечать на сообщения
Вы не можете редактировать свои сообщения
Вы не можете удалять свои сообщения
Вы не можете голосовать в опросах
Вы не можете прикреплять файлы к сообщениям
Вы можете скачивать файлы