(Classical) Jacobus Vaet - Salve Regina: sacred motets, motets of praise - Dufay Ensemble, Eckehard Kiem - 2010, FLAC (image+.cue) lossless


Статистика раздачи [Обновить пиров]
Размер:  281 MB   |    Зарегистрирован:  1 год 1 месяц   |    Скачан:  0 раз

Полного источника не было: Никогда

 
   
 
 
 

[Цитировать]

Jacobus Vaet - Salve Regina: sacred motets, motets of praise - Dufay Ensemble, Eckehard Kiem
Жанр: Classical
Страна-производитель диска: Germany
Год издания диска: 2010
Издатель (лейбл): Ars Musici
Дата записи: 2005
Аудиокодек: FLAC
Тип рипа: image+.cue
Битрейт аудио: lossless
Продолжительность: 53:49
Источник: собственный рип
Наличие сканов в содержимом раздачи: да
Треклист:
Jacobus Vaet (ca.1529-1567)
[1] Angelus ad pastores ait
[2]-[3] Ascendetis post filium
[4] Qui gerit Augusti
[5]-[7] Currite felices
[8]-[10] Aurea luce
[11]-[12] Beata es et venerabilis
[13]-[14] Mater digna Dei
[15]-[18] Salve Regina
[19] Vitam quae faciunt
Исполнители:
Dufay Ensemble
Eckehard Kiem

Лог создания рипа

Exact Audio Copy V1.0 beta 3 from 29. August 2011
EAC extraction logfile from 4. November 2014, 0:59
Dufay Ensemble, Eckehard Kiem / Vaet - Salve Regina; Sacred Motets
Used drive : HL-DT-STDVDRAM GU70N Adapter: 0 ID: 0
Read mode : SecureUtilize accurate stream : YesDefeat audio cache : YesMake use of C2 pointers : No
Read offset correction : 48Overread into Lead-In and Lead-Out : NoFill up missing offset samples with silence : YesDelete leading and trailing silent blocks : NoNull samples used in CRC calculations : YesUsed interface : Native Win32 interface for Win NT & 2000
Used output format : User Defined EncoderSelected bitrate : 128 kBit/sQuality : HighAdd ID3 tag : NoCommand line compressor : C:\Program Files (x86)\Exact Audio Copy\Flac\flac.exeAdditional command line options : -V -8 -T "Date=%year%" -T "Genre=%genre%" %source%
TOC of the extracted CD
Track | Start | Length | Start sector | End sector --------------------------------------------------------- 1 | 0:00.00 | 3:32.18 | 0 | 15917 2 | 3:32.18 | 3:27.10 | 15918 | 31452 3 | 6:59.28 | 3:29.34 | 31453 | 47161 4 | 10:28.62 | 3:25.56 | 47162 | 62592 5 | 13:54.43 | 3:13.26 | 62593 | 77093 6 | 17:07.69 | 2:06.59 | 77094 | 86602 7 | 19:14.53 | 2:26.33 | 86603 | 97585 8 | 21:41.11 | 3:23.64 | 97586 | 112874 9 | 25:05.00 | 3:20.36 | 112875 | 127910 10 | 28:25.36 | 3:47.34 | 127911 | 144969 11 | 32:12.70 | 3:12.61 | 144970 | 159430 12 | 35:25.56 | 2:42.59 | 159431 | 171639 13 | 38:08.40 | 2:10.10 | 171640 | 181399 14 | 40:18.50 | 2:27.46 | 181400 | 192470 15 | 42:46.21 | 2:12.57 | 192471 | 202427 16 | 44:59.03 | 2:02.09 | 202428 | 211586 17 | 47:01.12 | 2:48.19 | 211587 | 224205 18 | 49:49.31 | 1:34.27 | 224206 | 231282 19 | 51:23.58 | 2:23.30 | 231283 | 242037
Range status and errors
Selected range
Filename C:\temp\Vaet - Salve Regina; Sacred Motets\Vaet - Salve Regina; Sacred Motets.wav
Peak level 98.5 % Extraction speed 4.9 X Range quality 100.0 % Test CRC 4B834E01 Copy CRC 4B834E01 Copy OK
No errors occurred
AccurateRip summary
Track 1 accurately ripped (confidence 1) [4E2DF5B1] (AR v2)Track 2 accurately ripped (confidence 1) [B813B2F1] (AR v2)Track 3 accurately ripped (confidence 1) [D701DB1C] (AR v2)Track 4 accurately ripped (confidence 1) [A29300BA] (AR v2)Track 5 accurately ripped (confidence 1) [94640340] (AR v2)Track 6 accurately ripped (confidence 1) [65D0B46A] (AR v2)Track 7 accurately ripped (confidence 1) [FBCE3630] (AR v2)Track 8 accurately ripped (confidence 1) [3AF8BF47] (AR v2)Track 9 accurately ripped (confidence 1) [F19EE862] (AR v2)Track 10 accurately ripped (confidence 1) [913BD4D9] (AR v2)Track 11 accurately ripped (confidence 1) [5E4FE3B3] (AR v2)Track 12 accurately ripped (confidence 1) [E09005BA] (AR v2)Track 13 accurately ripped (confidence 1) [7909CFD4] (AR v2)Track 14 accurately ripped (confidence 1) [7F3886ED] (AR v2)Track 15 accurately ripped (confidence 1) [4F14AB53] (AR v2)Track 16 accurately ripped (confidence 1) [019D1A0A] (AR v2)Track 17 accurately ripped (confidence 1) [14C74348] (AR v2)Track 18 accurately ripped (confidence 1) [B9C52897] (AR v2)Track 19 accurately ripped (confidence 1) [CAC096AE] (AR v2)
All tracks accurately ripped
End of status report
==== Log checksum 0E0BA4B0B40132D6B5B0C6D69DC21DE802A3B3071653980023C1A3458F7FBB1C ====
[teatrix.ru].t7865.torrent 
Торрент: Зарегистрирован [ 2015-10-14 02:42 ] · D4659389F0CB779C0E32343356DC64718D0213CE

Скачать .torrent

Скачать

24 KB

Статус: проверено
Скачан: 0 раз
Размер: 281 MB
terms.php



Быстрый ответ

Имя:

      
Для отправки сообщений необходимо включить JavaScript
Показать сообщения:    

Текущее время: 07-Дек 11:39

Часовой пояс: UTC + 3


Вы можете начинать темы
Вы можете отвечать на сообщения
Вы не можете редактировать свои сообщения
Вы не можете удалять свои сообщения
Вы не можете голосовать в опросах
Вы не можете прикреплять файлы к сообщениям
Вы можете скачивать файлы