(Classical) Praise the Holy Virgin: Venetian and Florentine Laudi of the 15th and 16th century - Ensemble Daedalus, Roberto Festa - 1993, FLAC (image+.cue) lossless


Статистика раздачи [Обновить пиров]
Размер:  294 MB   |    Зарегистрирован:  1 год 1 месяц   |    Скачан:  0 раз

Полного источника не было: Никогда

 
   
 
 
 

[Цитировать]

Praise the Holy Virgin: Venetian and Florentine Laudi of the 15th and 16th century - Ensemble Daedalus, Roberto Festa
Жанр: Classical
Страна-производитель диска: Belgium
Год издания диска: 1993
Издатель (лейбл): Accent
Номер по каталогу: ACC 9289
Дата записи: 1992
Аудиокодек: FLAC
Тип рипа: image+.cue
Битрейт аудио: lossless
Продолжительность: 65:17
Источник: собственный рип
Наличие сканов в содержимом раздачи: да
Треклист:
Praise the Holy Virgin
[1] O Vergin Santa non m'abbandonare
[2] Salve, regina de misericordia
[3] Stava a pie de la croce
[4] Piangi, dolente anima predata
[5] Ave, preciosa gemma
[6] Salve, regina di misericordia
[7] Non tardati, peccatori
[8] Ave fuit prima salus
[9] Poiche'l mio largo pianto
[10] O Jesu dolce
[11] Sancta Maria, regina celorum
[12] Gentil madonna, de non m'abbandonare
[13] Cum desiderio vo cerchando
[14] O Vergene gentile
[15] Ne le tue braze, o Vergene Maria
Исполнители:
Ensemble Daedalus
Roberto Festa

Лог создания рипа

Exact Audio Copy V1.0 beta 3 from 29. August 2011
EAC extraction logfile from 19. September 2014, 14:37
Ensemble Daedalus / Praise the Holy Virgin
Used drive : HL-DT-STDVDRRW GWA-4164B Adapter: 5 ID: 0
Read mode : SecureUtilize accurate stream : YesDefeat audio cache : YesMake use of C2 pointers : No
Read offset correction : 102Overread into Lead-In and Lead-Out : NoFill up missing offset samples with silence : YesDelete leading and trailing silent blocks : NoNull samples used in CRC calculations : YesUsed interface : Native Win32 interface for Win NT & 2000
Used output format : User Defined EncoderSelected bitrate : 896 kBit/sQuality : HighAdd ID3 tag : NoCommand line compressor : C:\Program Files\Exact Audio Copy\FLAC\FLAC.EXEAdditional command line options : -V -8 %source%
TOC of the extracted CD
Track | Start | Length | Start sector | End sector --------------------------------------------------------- 1 | 0:00.33 | 5:18.62 | 33 | 23944 2 | 5:19.20 | 3:22.58 | 23945 | 39152 3 | 8:42.03 | 6:40.17 | 39153 | 69169 4 | 15:22.20 | 7:30.53 | 69170 | 102972 5 | 22:52.73 | 2:51.27 | 102973 | 115824 6 | 25:44.25 | 4:53.13 | 115825 | 137812 7 | 30:37.38 | 5:07.17 | 137813 | 160854 8 | 35:44.55 | 4:17.73 | 160855 | 180202 9 | 40:02.53 | 2:55.22 | 180203 | 193349 10 | 42:58.00 | 4:28.30 | 193350 | 213479 11 | 47:26.30 | 3:30.38 | 213480 | 229267 12 | 50:56.68 | 3:55.32 | 229268 | 246924 13 | 54:52.25 | 3:00.38 | 246925 | 260462 14 | 57:52.63 | 3:21.12 | 260463 | 275549 15 | 61:14.00 | 4:13.33 | 275550 | 294557
Range status and errors
Selected range
Filename D:\temp\Music\Praise the Holy Virgin\Praise the Holy Virgin.wav
Peak level 88.0 % Extraction speed 2.9 X Range quality 100.0 % Test CRC 4AD92A58 Copy CRC 4AD92A58 Copy OK
No errors occurred
AccurateRip summary
Track 1 cannot be verified as accurate (confidence 1) [E8F050AE], AccurateRip returned [452D4C79] (AR v2)Track 2 cannot be verified as accurate (confidence 1) [094E35F6], AccurateRip returned [748DDEAC] (AR v2)Track 3 cannot be verified as accurate (confidence 1) [3E698A2F], AccurateRip returned [BBEA5D48] (AR v2)Track 4 cannot be verified as accurate (confidence 1) [BE588940], AccurateRip returned [2A3ED8B4] (AR v2)Track 5 cannot be verified as accurate (confidence 1) [41C356AE], AccurateRip returned [9DE32AB8] (AR v2)Track 6 cannot be verified as accurate (confidence 1) [7757A85C], AccurateRip returned [7D9BA50D] (AR v2)Track 7 cannot be verified as accurate (confidence 1) [B977E6C7], AccurateRip returned [E37AA0FF] (AR v2)Track 8 cannot be verified as accurate (confidence 1) [2C797CCC], AccurateRip returned [64E74863] (AR v2)Track 9 cannot be verified as accurate (confidence 1) [209BCFF3], AccurateRip returned [D147F30B] (AR v2)Track 10 cannot be verified as accurate (confidence 1) [3FDDFDB5], AccurateRip returned [470DB470] (AR v2)Track 11 cannot be verified as accurate (confidence 1) [412E1CC9], AccurateRip returned [53FB39CB] (AR v2)Track 12 cannot be verified as accurate (confidence 1) [60B79F68], AccurateRip returned [491C6506] (AR v2)Track 13 cannot be verified as accurate (confidence 1) [C76B11A1], AccurateRip returned [0DE635F6] (AR v2)Track 14 cannot be verified as accurate (confidence 1) [F1BA4889], AccurateRip returned [C1B1A62B] (AR v2)Track 15 cannot be verified as accurate (confidence 1) [602F405E], AccurateRip returned [48E886DA] (AR v2)
No tracks could be verified as accurateYou may have a different pressing from the one(s) in the database
End of status report
==== Log checksum F3302BBA3F76B2584E884F576C7894D5BCDB2D817A14550BC45E582E7DC0A455 ====
[teatrix.ru].t7866.torrent 
Торрент: Зарегистрирован [ 2015-10-14 02:42 ] · FEF829BA7B955DB8FAD4B5C93B38E20988F58A3E

Скачать .torrent

Скачать

25 KB

Статус: проверено
Скачан: 0 раз
Размер: 294 MB
terms.php



Быстрый ответ

Имя:

      
Для отправки сообщений необходимо включить JavaScript
Показать сообщения:    

Текущее время: 05-Дек 21:32

Часовой пояс: UTC + 3


Вы можете начинать темы
Вы можете отвечать на сообщения
Вы не можете редактировать свои сообщения
Вы не можете удалять свои сообщения
Вы не можете голосовать в опросах
Вы не можете прикреплять файлы к сообщениям
Вы можете скачивать файлы