(Classical) Gustav Holst - This have I done for my true love: partsongs - Holst Singers, Stephen Layton - 2004, FLAC (image+.cue) lossless


Статистика раздачи [Обновить пиров]
Размер:  230 MB   |    Зарегистрирован:  1 год 1 месяц   |    Скачан:  0 раз

Полного источника не было: Никогда

 
   
 
 
 

[Цитировать]

Gustav Holst - This have I done for my true love: partsongs - Holst Singers, Stephen Layton
Жанр: Classical
Страна-производитель диска: UK
Год издания диска: 2004
Издатель (лейбл): Hyperion
Номер по каталогу: CDH55171
Дата записи: 1993
Аудиокодек: FLAC
Тип рипа: image+.cue
Битрейт аудио: lossless
Продолжительность: 71:12
Источник: собственный рип
Наличие сканов в содержимом раздачи: да
Треклист:
Gustav Holst (1874-1934)
[1] Ave Maria, H49 (Op.9b)
[2] Of one that is so fair and bright, H130 (Op.34 No.3)
[3] A Welcome Song, (No.1 of 'Two Carols'), H91
[4] Jesu, Thou the Virgin-born, (No.3 of 'Four Old English Carols'), H82 (Op.20b)
[5] Terly terlow, (No.2 of 'Two Carols'), H91
[6] Lullay my liking, H129 (Op.34 No.4)
[7] Bring us in good ale, H131 (Op.34 No.4)
[8] Diverus and Lazarus, H137
[9] This have I done for my true love, H128 (Op.34 No.1)
[10]-[15] Songs from 'The Princess', H80 (Op.20a)
[16] O spiritual pilgrim, H188
[17] Mae 'nghariad i'n Fenws (No.9 of 'Twelve Welsh Folk Songs), H183
[18]-[19] Two Eastern Pictures, H112
[20] Light leaves whisper, H20
[21] In youth is pleasure, H76
[22]-[27] Six Choral Folk Songs, H136 (Op.36b)
Исполнители:
Holst Singers
Stephen Layton

Лог создания рипа

Exact Audio Copy V1.0 beta 3 from 29. August 2011
EAC extraction logfile from 7. February 2015, 21:35
Holst Singers, Stephen Layton / Holst - This have I done for my true love
Used drive : HL-DT-STDVDRAM GU70N Adapter: 0 ID: 0
Read mode : SecureUtilize accurate stream : YesDefeat audio cache : YesMake use of C2 pointers : No
Read offset correction : 48Overread into Lead-In and Lead-Out : NoFill up missing offset samples with silence : YesDelete leading and trailing silent blocks : NoNull samples used in CRC calculations : YesUsed interface : Native Win32 interface for Win NT & 2000
Used output format : User Defined EncoderSelected bitrate : 128 kBit/sQuality : HighAdd ID3 tag : NoCommand line compressor : C:\Program Files (x86)\Exact Audio Copy\Flac\flac.exeAdditional command line options : -V -8 -T "Date=%year%" -T "Genre=%genre%" %source%
TOC of the extracted CD
Track | Start | Length | Start sector | End sector --------------------------------------------------------- 1 | 0:00.00 | 4:41.13 | 0 | 21087 2 | 4:41.13 | 1:45.02 | 21088 | 28964 3 | 6:26.15 | 2:30.05 | 28965 | 40219 4 | 8:56.20 | 2:38.70 | 40220 | 52139 5 | 11:35.15 | 2:28.10 | 52140 | 63249 6 | 14:03.25 | 3:28.70 | 63250 | 78919 7 | 17:32.20 | 1:15.73 | 78920 | 84617 8 | 18:48.18 | 4:30.72 | 84618 | 104939 9 | 23:19.15 | 5:39.05 | 104940 | 130369 10 | 28:58.20 | 2:23.08 | 130370 | 141102 11 | 31:21.28 | 2:32.57 | 141103 | 152559 12 | 33:54.10 | 2:05.48 | 152560 | 161982 13 | 35:59.58 | 1:48.35 | 161983 | 170117 14 | 37:48.18 | 1:52.65 | 170118 | 178582 15 | 39:41.08 | 1:45.15 | 178583 | 186472 16 | 41:26.23 | 2:11.50 | 186473 | 196347 17 | 43:37.73 | 2:04.20 | 196348 | 205667 18 | 45:42.18 | 2:06.62 | 205668 | 215179 19 | 47:49.05 | 2:47.15 | 215180 | 227719 20 | 50:36.20 | 1:55.73 | 227720 | 236417 21 | 52:32.18 | 1:42.00 | 236418 | 244067 22 | 54:14.18 | 1:26.70 | 244068 | 250587 23 | 55:41.13 | 2:26.07 | 250588 | 261544 24 | 58:07.20 | 5:08.03 | 261545 | 284647 25 | 63:15.23 | 2:13.70 | 284648 | 294692 26 | 65:29.18 | 3:02.00 | 294693 | 308342 27 | 68:31.18 | 2:54.00 | 308343 | 321392
Range status and errors
Selected range
Filename C:\temp\CDH55171 - Holst - This have I done for my true love\Holst - This have I done for my true love.wav
Peak level 99.9 % Extraction speed 2.2 X Range quality 100.0 % Test CRC CD11BB8C Copy CRC CD11BB8C Copy OK
No errors occurred
AccurateRip summary
Track 1 accurately ripped (confidence 2) [D7A0022E] (AR v2)Track 2 accurately ripped (confidence 2) [A099DE12] (AR v2)Track 3 accurately ripped (confidence 2) [F8FC7132] (AR v2)Track 4 accurately ripped (confidence 2) [253D8050] (AR v2)Track 5 accurately ripped (confidence 2) [C7000B42] (AR v2)Track 6 accurately ripped (confidence 2) [A8F4E280] (AR v2)Track 7 accurately ripped (confidence 2) [9275FCDF] (AR v2)Track 8 accurately ripped (confidence 2) [41397F77] (AR v2)Track 9 accurately ripped (confidence 2) [3F60C64D] (AR v2)Track 10 accurately ripped (confidence 2) [7A3BC316] (AR v2)Track 11 accurately ripped (confidence 2) [CF71F028] (AR v2)Track 12 accurately ripped (confidence 2) [9593CF7B] (AR v2)Track 13 accurately ripped (confidence 2) [EE24EFC3] (AR v2)Track 14 accurately ripped (confidence 2) [43FD9985] (AR v2)Track 15 accurately ripped (confidence 2) [2739FBA6] (AR v2)Track 16 accurately ripped (confidence 2) [E87EAA7F] (AR v2)Track 17 accurately ripped (confidence 2) [032A6E73] (AR v2)Track 18 accurately ripped (confidence 2) [C52173D6] (AR v2)Track 19 accurately ripped (confidence 2) [A5E04103] (AR v2)Track 20 accurately ripped (confidence 2) [2724B0B7] (AR v2)Track 21 accurately ripped (confidence 2) [B4DAC8D2] (AR v2)Track 22 accurately ripped (confidence 2) [F52EF092] (AR v2)Track 23 accurately ripped (confidence 2) [889376FA] (AR v2)Track 24 accurately ripped (confidence 2) [31BF7340] (AR v2)Track 25 accurately ripped (confidence 2) [DAEECD4B] (AR v2)Track 26 accurately ripped (confidence 2) [412130F3] (AR v2)Track 27 accurately ripped (confidence 2) [9E4FEBE8] (AR v2)
All tracks accurately ripped
End of status report
==== Log checksum FDA8877AA7E8C745522574C4B7F6083CECA083E9D11BBDDE83CB5813D9D8A925 ====
[teatrix.ru].t7867.torrent 
Торрент: Зарегистрирован [ 2015-10-14 02:42 ] · C15370DF0FF7094666C4993BDD230F149FE7FDE0

Скачать .torrent

Скачать

37 KB

Статус: проверено
Скачан: 0 раз
Размер: 230 MB
terms.php



Быстрый ответ

Имя:

      
Для отправки сообщений необходимо включить JavaScript
Показать сообщения:    

Текущее время: 03-Дек 16:47

Часовой пояс: UTC + 3


Вы можете начинать темы
Вы можете отвечать на сообщения
Вы не можете редактировать свои сообщения
Вы не можете удалять свои сообщения
Вы не можете голосовать в опросах
Вы не можете прикреплять файлы к сообщениям
Вы можете скачивать файлы