(Classical) Gustav Holst - A Choral Fantasia; First Choral Symphony - Lynne Dawson, Guildford Choral Society, Royal Philharmonic Orchestra, Hilary Davan Wetton - 2002, FLAC (image+.cue) lossless


Статистика раздачи [Обновить пиров]
Размер:  264 MB   |    Зарегистрирован:  1 год 1 месяц   |    Скачан:  0 раз

Полного источника не было: Никогда

 
   
 
 
 

[Цитировать]

Gustav Holst - A Choral Fantasia; First Choral Symphony - Lynne Dawson, Guildford Choral Society, Royal Philharmonic Orchestra, Hilary Davan Wetton
Жанр: Classical
Страна-производитель диска: UK
Год издания диска: 2002
Издатель (лейбл): Hyperion
Номер по каталогу: CDH55104
Дата записи: 1993
Аудиокодек: FLAC
Тип рипа: image+.cue
Битрейт аудио: lossless
Продолжительность: 67:27
Источник: собственный рип
Наличие сканов в содержимом раздачи: да
Треклист:
Gustav Holst (1874-1934)
[1]-[5] A Choral Fantasia, H177 Op.51
[6]-[22] Choral Symphony No.1, H155 Op.41
Исполнители:
Lynne Dawson soprano
Guildford Choral Society
Royal Philharmonic Orchestra
Hilary Davan Wetton
conductor

Лог создания рипа

Exact Audio Copy V1.0 beta 3 from 29. August 2011
EAC extraction logfile from 26. January 2015, 2:05
Guildford Choral Society, Royal PO, Hilary Davan Wetton / Holst - Choral Fantasia; First Choral Symphony
Used drive : HL-DT-STDVDRAM GU70N Adapter: 0 ID: 0
Read mode : SecureUtilize accurate stream : YesDefeat audio cache : YesMake use of C2 pointers : No
Read offset correction : 48Overread into Lead-In and Lead-Out : NoFill up missing offset samples with silence : YesDelete leading and trailing silent blocks : NoNull samples used in CRC calculations : YesUsed interface : Native Win32 interface for Win NT & 2000
Used output format : User Defined EncoderSelected bitrate : 128 kBit/sQuality : HighAdd ID3 tag : NoCommand line compressor : C:\Program Files (x86)\Exact Audio Copy\Flac\flac.exeAdditional command line options : -V -8 -T "Date=%year%" -T "Genre=%genre%" %source%
TOC of the extracted CD
Track | Start | Length | Start sector | End sector --------------------------------------------------------- 1 | 0:00.00 | 2:46.33 | 0 | 12482 2 | 2:46.33 | 3:59.60 | 12483 | 30467 3 | 6:46.18 | 4:10.62 | 30468 | 49279 4 | 10:57.05 | 6:19.45 | 49280 | 77749 5 | 17:16.50 | 1:15.63 | 77750 | 83437 6 | 18:32.38 | 3:29.50 | 83438 | 99162 7 | 22:02.13 | 6:08.17 | 99163 | 126779 8 | 28:10.30 | 0:41.25 | 126780 | 129879 9 | 28:51.55 | 0:50.30 | 129880 | 133659 10 | 29:42.10 | 0:45.08 | 133660 | 137042 11 | 30:27.18 | 0:56.57 | 137043 | 141299 12 | 31:24.00 | 1:16.65 | 141300 | 147064 13 | 32:40.65 | 10:41.38 | 147065 | 195177 14 | 43:22.28 | 2:50.10 | 195178 | 207937 15 | 46:12.38 | 2:42.32 | 207938 | 220119 16 | 48:54.70 | 1:04.30 | 220120 | 224949 17 | 49:59.25 | 2:16.23 | 224950 | 235172 18 | 52:15.48 | 1:07.67 | 235173 | 240264 19 | 53:23.40 | 4:29.15 | 240265 | 260454 20 | 57:52.55 | 1:24.10 | 260455 | 266764 21 | 59:16.65 | 6:33.48 | 266765 | 296287 22 | 65:50.38 | 1:47.25 | 296288 | 304337
Range status and errors
Selected range
Filename C:\temp\CDH55104 - Holst - Choral Symphony; Choral Fantasia\Holst - Choral Fantasia; First Choral Symphony.wav
Peak level 100.0 % Extraction speed 2.2 X Range quality 100.0 % Test CRC 13CE5EE2 Copy CRC 13CE5EE2 Copy OK
No errors occurred
AccurateRip summary
Track 1 accurately ripped (confidence 8) [E779A62C] (AR v2)Track 2 accurately ripped (confidence 8) [12D099AE] (AR v2)Track 3 accurately ripped (confidence 8) [808A47C6] (AR v2)Track 4 accurately ripped (confidence 8) [EE682E4D] (AR v2)Track 5 accurately ripped (confidence 8) [43EB6F5D] (AR v2)Track 6 accurately ripped (confidence 8) [027752B8] (AR v2)Track 7 accurately ripped (confidence 8) [BC52EA48] (AR v2)Track 8 accurately ripped (confidence 8) [4AB7182D] (AR v2)Track 9 accurately ripped (confidence 8) [C9D23305] (AR v2)Track 10 accurately ripped (confidence 8) [5C09ED9A] (AR v2)Track 11 accurately ripped (confidence 8) [1BA4A03F] (AR v2)Track 12 accurately ripped (confidence 8) [21E4525E] (AR v2)Track 13 accurately ripped (confidence 8) [4901C252] (AR v2)Track 14 accurately ripped (confidence 8) [79FB94F2] (AR v2)Track 15 accurately ripped (confidence 8) [8F9D5296] (AR v2)Track 16 accurately ripped (confidence 8) [21D00ED9] (AR v2)Track 17 accurately ripped (confidence 8) [7584B254] (AR v2)Track 18 accurately ripped (confidence 8) [4E381D56] (AR v2)Track 19 accurately ripped (confidence 8) [F432F062] (AR v2)Track 20 accurately ripped (confidence 8) [EF6050A7] (AR v2)Track 21 accurately ripped (confidence 8) [E34B1910] (AR v2)Track 22 accurately ripped (confidence 8) [3A89799E] (AR v2)
All tracks accurately ripped
End of status report
==== Log checksum 4B21066677534E5517C6A262D302748D07B33C6A35B951EAA8000ABA519B1102 ====
[teatrix.ru].t7868.torrent 
Торрент: Зарегистрирован [ 2015-10-14 02:42 ] · F61EBDEDFFBEB9E2050292DB332F6001F4CECC6E

Скачать .torrent

Скачать

22 KB

Статус: проверено
Скачан: 0 раз
Размер: 264 MB
terms.php



Быстрый ответ

Имя:

      
Для отправки сообщений необходимо включить JavaScript
Показать сообщения:    

Текущее время: 03-Дек 20:39

Часовой пояс: UTC + 3


Вы можете начинать темы
Вы можете отвечать на сообщения
Вы не можете редактировать свои сообщения
Вы не можете удалять свои сообщения
Вы не можете голосовать в опросах
Вы не можете прикреплять файлы к сообщениям
Вы можете скачивать файлы